<?xml version="1.0" standalone="no"?>
<!DOCTYPE svg PUBLIC "-//W3C//DTD SVG 1.1//EN" "http://www.w3.org/Graphics/SVG/1.1/DTD/svg11.dtd" >
<svg xmlns="http://www.w3.org/2000/svg">
<metadata></metadata>
<defs>
<font id="nexa_slabbook" horiz-adv-x="1433" >
<font-face units-per-em="2048" ascent="1434" descent="-614" />
<missing-glyph horiz-adv-x="534" />
<glyph horiz-adv-x="2048" />
<glyph horiz-adv-x="2048" />
<glyph horiz-adv-x="682" />
<glyph unicode="&#xd;" horiz-adv-x="606" />
<glyph unicode=" "  horiz-adv-x="534" />
<glyph unicode="&#x09;" horiz-adv-x="534" />
<glyph unicode="&#xa0;" horiz-adv-x="534" />
<glyph unicode="!" horiz-adv-x="552" d="M180 88q0 46 29.5 71t69.5 25t69 -25.5t29 -70.5t-29 -70.5t-69 -25.5t-69.5 25.5t-29.5 70.5zM205 307v1127h141v-1127h-141z" />
<glyph unicode="&#x22;" horiz-adv-x="733" d="M156 909v529h118v-529h-118zM459 909v529h119v-529h-119z" />
<glyph unicode="#" horiz-adv-x="1316" d="M74 334v117h190l137 534h-172v113h199l82 336h129l-82 -336h381l84 336h129l-84 -336h176v-113h-205l-135 -534h187v-117h-213l-82 -334h-129l82 334h-383l-82 -334h-127l82 334h-164zM393 446h379l137 543h-377z" />
<glyph unicode="$" horiz-adv-x="1320" d="M119 170v287h129l4 -221q84 -62 191 -96t216 -34q59 0 114 6.5t116.5 26t106.5 50t74.5 82.5t29.5 120q0 43 -15 79t-40 61.5t-62.5 47t-74.5 35.5t-85.5 25.5t-85.5 18.5t-83 15q-5 1 -7 1q-66 12 -114 22t-107 27.5t-99.5 37t-82 49t-66.5 65.5t-41 85.5t-16 108.5 q-1 78 27 143t75 109t111 75t133.5 46t144.5 18v189h131v-193q252 -19 420 -158q0 -50 -1 -140t-1 -140h-125l-6 219q-72 49 -172.5 73.5t-204.5 24.5q-76 0 -144 -15.5t-125 -46.5t-90.5 -84t-33.5 -122q0 -37 11.5 -68.5t30 -54.5t50.5 -42.5t62.5 -33t76.5 -26t83.5 -20 t91.5 -17.5q59 -10 95.5 -17t91.5 -19.5t89.5 -24t80 -30.5t73.5 -39.5t58.5 -49.5t47.5 -62.5t28 -77.5t11 -94q-1 -82 -29.5 -149.5t-76 -113t-113 -78.5t-135 -50t-146.5 -23v-186h-129v184q-293 10 -493 195z" />
<glyph unicode="%" horiz-adv-x="1527" d="M74 1139q0 60 20.5 114.5t58.5 98.5t100 70t138 26q101 0 175 -46t108.5 -114.5t34.5 -148.5t-34.5 -148.5t-109 -114t-176.5 -45.5q-148 0 -231.5 91.5t-83.5 216.5zM188 1141q0 -81 53.5 -140t149.5 -59q95 0 148 58.5t55 140.5q0 80 -56 140t-149 60q-95 0 -148 -59.5 t-53 -140.5zM225 0l926 1438h149l-925 -1438h-150zM821 293q0 126 84 216.5t234 90.5q101 0 175 -45.5t108 -113.5t34 -148q0 -59 -20.5 -113t-59 -98t-100.5 -70t-139 -26q-148 0 -232 91t-84 216zM936 295q0 -82 53.5 -141.5t149.5 -59.5q95 0 147.5 58.5t54.5 140.5 q0 80 -55.5 140.5t-148.5 60.5q-95 0 -148 -59.5t-53 -139.5z" />
<glyph unicode="&#x26;" horiz-adv-x="1411" d="M121 393q0 117 80 208.5t194 131.5q-108 33 -178 122t-70 198q0 179 141.5 285t375.5 106q475 0 475 -365l-131 2q0 74 -28 124.5t-79.5 76t-109 35.5t-132.5 10q-185 0 -280.5 -76.5t-93.5 -193.5q1 -72 37.5 -126.5t95.5 -83.5t121.5 -42.5t126.5 -13.5h622v-115h-131 v-291q0 -56 8 -101t26 -83.5t52 -59.5t82 -20v-121q-88 -9 -155 37t-91 141q-37 -60 -86.5 -100.5t-107 -60.5t-110.5 -27.5t-116 -7.5q-257 0 -397.5 105t-140.5 306zM260 395q0 -134 102.5 -210t292.5 -76q49 0 97.5 7.5t100.5 27.5t91 50t64.5 80t25.5 113v289h-379 q-185 0 -290 -85.5t-105 -195.5z" />
<glyph unicode="'" horiz-adv-x="432" d="M156 909v531h120v-531h-120z" />
<glyph unicode="(" horiz-adv-x="681" d="M98 600q0 274 117.5 517t339.5 388l70 -96q-187 -135 -286 -344.5t-101 -458.5q-3 -247 95 -460.5t292 -356.5l-72 -102q-148 97 -252.5 246t-153.5 318t-49 349z" />
<glyph unicode=")" horiz-adv-x="679" d="M53 1411l70 96q149 -96 254 -243t155 -314t50 -346q0 -276 -118 -522.5t-339 -390.5l-70 100q193 142 291 356t96 461q-3 252 -102.5 461t-286.5 342z" />
<glyph unicode="*" horiz-adv-x="720" d="M113 1229l28 98l168 -55l-4 170h107l-6 -172l178 55l28 -98l-178 -43l119 -148l-86 -63l-111 155l-110 -155l-86 61l121 150z" />
<glyph unicode="+" horiz-adv-x="1011" d="M94 639v127h346v342h129v-342h349v-127h-349v-350h-129v350h-346z" />
<glyph unicode="," horiz-adv-x="677" d="M244 72q1 34 20.5 57.5t47 28.5t55 -1t46 -30t17.5 -59q0 -11 -12.5 -47.5t-36 -101.5t-35.5 -99h-94l53 172q-30 8 -46 29t-15 51z" />
<glyph unicode="-" horiz-adv-x="1015" d="M145 524v127h725v-127h-725z" />
<glyph unicode="." horiz-adv-x="464" d="M139 80q0 42 28 66t66 24q37 0 65 -24.5t28 -67.5t-27.5 -67.5t-65.5 -24.5t-66 24.5t-28 69.5z" />
<glyph unicode="/" horiz-adv-x="985" d="M47 -168l748 1724h141l-748 -1724h-141z" />
<glyph unicode="0" d="M154 561v313q0 141 47.5 254.5t127 183.5t180 107t210.5 37t209.5 -37.5t179 -108t126 -183.5t46.5 -253v-313q0 -140 -46.5 -253t-126 -183.5t-179 -107.5t-209.5 -37q-111 0 -211.5 37t-180 107t-126.5 183t-47 254zM297 559q0 -108 35 -194t94.5 -140t134.5 -82 t158 -28q84 0 158.5 28.5t133.5 82.5t93.5 140.5t34.5 194.5v313q0 107 -35 193.5t-94 140.5t-133.5 82.5t-157.5 28.5t-158 -28.5t-134.5 -82t-94.5 -140t-35 -194.5v-315z" />
<glyph unicode="1" d="M252 0v121h434v1141l-379 -78v129l524 121v-1313h398v-121h-977z" />
<glyph unicode="2" d="M160 0v334q0 92 33 164.5t86.5 117t128 73.5t151 40.5t162.5 11.5q57 0 110 8t107 28t93 51.5t64 83t25 116.5q0 67 -23 119.5t-61 85.5t-90 55t-105.5 30.5t-113.5 8.5q-59 0 -113 -7t-110 -26.5t-96 -50t-66 -81.5t-27 -118h-141q2 91 33.5 162.5t82.5 117t123 75 t149 41.5t165 12q83 0 158 -13.5t144.5 -45t120 -79t80.5 -121t30 -165.5t-30.5 -165t-81.5 -119.5t-121.5 -77.5t-145 -44t-158.5 -14q-61 0 -115.5 -6.5t-112 -25t-98.5 -48t-67.5 -79t-26.5 -113.5v-203h827l7 211h129v-344h-1106z" />
<glyph unicode="3" d="M160 377h141q1 -76 39.5 -131t103 -83.5t132 -41t141.5 -12.5q180 0 298 81t118 226q0 86 -29.5 147.5t-74 95t-113.5 52.5t-129.5 23t-141.5 3l-18 45q22 33 193 261.5t194 261.5l-666 -2l-6 -213h-129v344h1010v-66l-404 -520q101 -9 181 -37t143 -78t97 -130t34 -185 q0 -139 -76.5 -240t-202 -149.5t-282.5 -48.5q-81 0 -157 12.5t-149 42t-127 74t-87 113.5t-33 155z" />
<glyph unicode="4" d="M102 467l799 967h211v-985h178v-136h-178v-313h-143v313h-848zM264 449h705v847z" />
<glyph unicode="5" d="M172 403h145q0 -66 26.5 -117t67.5 -80.5t98 -48t110 -24.5t112 -6q199 0 307.5 83.5t108.5 229.5q0 66 -21 121.5t-65 100t-120 69.5t-177 25h-559v678h1005v-134h-868v-411l422 2q135 0 238.5 -35t165.5 -97t93 -142t31 -175q0 -201 -148 -326.5t-411 -125.5 q-86 0 -163 11.5t-151 41.5t-127.5 75.5t-86 118.5t-33.5 166z" />
<glyph unicode="6" d="M174 434v608q0 102 47 182.5t126.5 129.5t177 74.5t204.5 25.5q111 0 208 -23t173 -68t122.5 -118t51.5 -166h-143q-4 80 -62 139t-148.5 87t-201.5 28q-108 -1 -200.5 -33.5t-154 -100.5t-61.5 -159v-354q72 100 188.5 146.5t248.5 46.5q107 0 204.5 -25.5t180 -77 t131.5 -140.5t49 -206q0 -94 -33 -171t-87.5 -128t-128.5 -85.5t-153.5 -50t-164.5 -15.5q-86 0 -167 15.5t-155.5 51t-130 87t-88.5 129t-33 171.5zM317 430q-1 -84 37.5 -148t103.5 -99.5t138 -52.5t152 -17q62 1 120 10.5t115 33t98.5 58.5t67 90.5t25.5 124.5 q0 67 -25 122t-66.5 91t-97 60.5t-114.5 35.5t-121 11q-77 0 -152 -20t-139 -57.5t-103 -100.5t-39 -142z" />
<glyph unicode="7" d="M215 1090v344h1051l14 -97l-721 -1337h-160l709 1303h-760l-6 -213h-127z" />
<glyph unicode="8" d="M119 391q0 129 88 224t217 126q-277 94 -277 322q0 86 34.5 155.5t90.5 114.5t131 75t152.5 43t159.5 13t159.5 -12.5t153.5 -42.5t132.5 -74.5t91.5 -114.5t36 -157q0 -116 -78 -198.5t-204 -123.5q130 -32 218 -129t89 -223q0 -95 -36 -169.5t-94.5 -121t-138.5 -76.5 t-160.5 -42t-168.5 -11q-87 0 -167 12t-160 42t-138 76.5t-94.5 121.5t-36.5 170zM260 393q0 -80 44.5 -140t116 -91.5t145.5 -46.5t149 -15q74 0 147.5 14.5t146 46t117.5 91t45 139.5q0 63 -31.5 114.5t-80 84t-110.5 55t-121 32t-113 9.5q-55 1 -113.5 -7.5t-120.5 -30 t-110.5 -54t-79.5 -85t-31 -116.5zM287 1065q1 -71 43.5 -124.5t109.5 -82t136.5 -42t138.5 -13.5q54 0 110 8t115 27.5t104 48t74 75t29 103.5q0 59 -28 107.5t-73 79.5t-103 52t-115 30t-113 9q-57 0 -114 -9t-114.5 -30t-101 -51.5t-71 -79t-27.5 -108.5z" />
<glyph unicode="9" d="M119 1008q0 94 33 171t87.5 128t128.5 85.5t153.5 50t164.5 15.5t165.5 -15.5t155.5 -51t130.5 -87t89 -129t33.5 -171.5v-609q0 -82 -31 -150.5t-84 -116t-124 -80.5t-151 -48.5t-165 -15.5q-111 0 -208 23t-174.5 67.5t-124 117.5t-51.5 166h144q6 -117 124 -183 t290 -66q79 1 152 19.5t132.5 53.5t95 90.5t35.5 124.5v359q-71 -101 -188 -149t-248 -48q-107 0 -204.5 25.5t-180 77t-131.5 140.5t-49 206zM260 1008q0 -67 25 -122t66.5 -91t97.5 -60.5t114.5 -35.5t120.5 -11q78 0 152.5 20t137.5 57.5t102 100.5t40 142 q0 85 -38.5 149t-102.5 99.5t-137 53t-152 17.5q-78 -1 -149.5 -17.5t-135.5 -52t-102.5 -99.5t-38.5 -150z" />
<glyph unicode=":" horiz-adv-x="481" d="M145 80q0 43 29 68.5t66 25.5q39 0 67.5 -25t28.5 -69q0 -45 -28 -69.5t-68 -24.5q-37 0 -66 25t-29 69zM145 686q0 44 29 69t66 25q40 0 68 -24.5t28 -69.5q0 -44 -28.5 -69t-67.5 -25q-37 0 -66 25.5t-29 68.5z" />
<glyph unicode=";" horiz-adv-x="487" d="M147 72q1 34 20.5 57.5t47.5 28.5t55.5 -1t47 -30t18.5 -59q-1 -14 -86 -248h-94l53 170q-62 16 -62 82zM147 686q0 43 28.5 68.5t66.5 25.5q40 0 68 -24.5t28 -69.5q0 -44 -28.5 -69t-67.5 -25q-38 0 -66.5 24.5t-28.5 69.5z" />
<glyph unicode="&#x3c;" horiz-adv-x="749" d="M102 614v70l441 399l84 -92l-377 -342l385 -342l-92 -92z" />
<glyph unicode="=" horiz-adv-x="1136" d="M152 373v127h833v-127h-833zM152 791v129h833v-129h-833z" />
<glyph unicode="&#x3e;" horiz-adv-x="749" d="M117 303l385 346l-379 344l84 90l440 -399v-70l-440 -399z" />
<glyph unicode="?" horiz-adv-x="1224" d="M70 1032q0 90 30 162.5t80.5 120t119.5 79.5t143.5 46t156.5 14q84 0 160 -13.5t148 -45t124 -78.5t83.5 -120.5t31.5 -164.5q0 -95 -26.5 -163.5t-82.5 -112t-94 -63t-108 -45.5q-9 -3 -13 -5q-90 -30 -132 -64t-58.5 -92.5t-14.5 -169.5h-141q-2 140 28 224.5t91 131 t174 83.5q56 20 92.5 38.5t72.5 50t53.5 78.5t17.5 111q0 69 -26 122t-66.5 84.5t-96.5 51.5t-110 27.5t-113 7.5q-71 0 -134.5 -14.5t-122.5 -46.5t-94 -92t-36 -142h-137zM457 92q0 46 29 71t69 25t69 -25.5t29 -70.5q0 -47 -29 -72.5t-69 -25.5t-69 25.5t-29 72.5z" />
<glyph unicode="@" horiz-adv-x="1865" d="M106 600q0 171 60 319.5t166 254.5t258.5 166.5t331.5 60.5q177 0 325.5 -50.5t259 -148.5t172.5 -252t62 -350q0 -72 -9.5 -138.5t-29.5 -129.5t-57 -110.5t-86 -67.5q-41 -25 -86.5 -29.5t-83.5 10.5t-62.5 56t-23.5 100q-54 -96 -166.5 -154.5t-227.5 -58.5 q-144 0 -262.5 67.5t-186 184.5t-67.5 258q0 157 69.5 275t186 178.5t260.5 60.5q118 0 224 -57t161 -160l4 168l111 -9v-737q0 -37 18 -58t40.5 -19.5t43.5 16.5q60 29 86.5 130t26.5 226q0 174 -49.5 306t-142.5 215t-221 125t-289 42q-199 0 -356 -87t-245 -244.5 t-88 -358.5q0 -206 89 -358.5t243.5 -231t354.5 -78.5q175 0 311 84l59 -98q-164 -102 -372 -102q-239 0 -423 96.5t-286.5 275.5t-102.5 412zM524 590q0 -174 107.5 -281.5t277.5 -107.5q93 0 168.5 33t122.5 88t71.5 124.5t24.5 145.5t-24.5 144.5t-71 123.5t-121 87 t-168.5 32q-171 0 -279 -104t-108 -285z" />
<glyph unicode="A" horiz-adv-x="1646" d="M16 0v129h146l530 1176h-180v129h399l580 -1305h145v-129h-483v129h184q-26 59 -71 163t-58 134h-762q-86 -192 -131 -297h183v-129h-482zM502 553h649q-46 107 -149.5 351t-167.5 392q-255 -569 -332 -743z" />
<glyph unicode="B" horiz-adv-x="1503" d="M102 0v129h185v1176h-181v129h762q79 0 148.5 -14t129.5 -44.5t103 -76t67.5 -112t24.5 -149.5q0 -105 -59.5 -187t-165.5 -118q132 -34 203.5 -131.5t71.5 -216.5q0 -385 -523 -385h-766zM426 131h442q381 0 381 258q0 73 -33 129t-87.5 88t-118 48t-131.5 16h-453v-539 zM426 799h453q67 0 124 14t102.5 41.5t72 74t26.5 107.5q0 74 -26 128t-73.5 84t-105.5 43.5t-131 13.5h-442v-506z" />
<glyph unicode="C" horiz-adv-x="1447" d="M109 709v8q0 112 28 216q29 108 90 203t147.5 165.5t209.5 111.5t268 41q126 0 247.5 -43t219.5 -125q0 -199 -2 -297h-127l-4 232q-139 98 -334 98q-146 0 -263 -50t-190 -135t-111 -193t-38 -230q2 -123 41.5 -230t113.5 -188.5t189 -128.5t258 -47q115 0 227.5 45 t196.5 129l100 -94q-105 -105 -242 -160t-282 -55t-267 38.5t-208.5 106.5t-147.5 160t-90 198.5t-30 223.5z" />
<glyph unicode="D" horiz-adv-x="1605" d="M102 0v129h185v1178h-181v129h668q142 0 261 -37t203 -102.5t143 -154.5t87 -193t29 -218v-8q1 -111 -25 -214q-26 -106 -84 -199.5t-141.5 -162t-205 -108t-267.5 -39.5h-672zM430 131h344q117 0 215 34t165.5 91.5t114 134.5t67.5 163q20 83 20 171v8q-1 113 -37.5 214 t-106.5 182t-183 128.5t-255 47.5h-344v-1174z" />
<glyph unicode="E" horiz-adv-x="1396" d="M102 0v129h185v1176h-181v129h1160v-351h-127l-4 220h-707v-508h698v-133h-698v-529h737l4 221h127v-354h-1194z" />
<glyph unicode="F" horiz-adv-x="1304" d="M104 0v129h187v1176h-185v129h1121v-351h-127l-4 224h-666v-527h657v-131h-657v-520h195v-129h-521z" />
<glyph unicode="G" horiz-adv-x="1509" d="M109 716q0 214 89 380q90 169 259 263.5t391 94.5q297 0 502 -174q0 -91 -4 -291h-125l-4 228q-152 106 -369 106q-144 0 -260 -49.5t-190 -134.5t-113 -194.5t-39 -233.5q0 -120 38.5 -226.5t111.5 -190t190.5 -132.5t263.5 -49q245 0 403 161v330h-467v125h594v-512 q-203 -237 -530 -237q-146 0 -268 38.5t-208.5 106t-146.5 160t-89 200t-29 231.5z" />
<glyph unicode="H" horiz-adv-x="1699" d="M104 0v129h187v1176h-185v129h502v-129h-178v-512h842v512h-178v129h499v-129h-182v-1176h184v-129h-501v129h178v537h-842v-537h178v-129h-504z" />
<glyph unicode="I" horiz-adv-x="722" d="M102 0v129h189v1176h-185v129h510v-129h-186v-1176h191v-129h-519z" />
<glyph unicode="J" horiz-adv-x="1386" d="M55 553h140q0 -201 112.5 -321.5t306.5 -120.5q198 0 315.5 118t117.5 328v746h-510v131h649v-877v-10q0 -258 -155 -413q-158 -157 -417 -157q-251 0 -405 158t-154 418z" />
<glyph unicode="K" horiz-adv-x="1470" d="M104 0v129h187v1176h-185v129h490v-129h-166v-611l649 611h-182v129h512v-129h-149l-537 -514l498 -662h219v-129h-383v129l-432 571l-195 -180v-391h209v-129h-535z" />
<glyph unicode="L" horiz-adv-x="1284" d="M102 1305v129h502v-129h-176v-1174h664l4 223h129v-354h-1119v129h181v1176h-185z" />
<glyph unicode="M" horiz-adv-x="1974" d="M102 0v129h189v1176h-187v129h357l528 -789l522 789h357v-129h-185v-1176h187v-129h-506v129h180v1104l-540 -784h-31l-541 786v-1106h178v-129h-508z" />
<glyph unicode="N" horiz-adv-x="1708" d="M102 1305v129h281l915 -1170v1041h-184v129h504v-129h-180v-1305h-101l-909 1157v-1028h184v-129h-506v129h181v1176h-185z" />
<glyph unicode="O" horiz-adv-x="1662" d="M106 715q0 119 30 228.5t91 203t146.5 162.5t203 108t254.5 39q141 0 261 -41t204.5 -111.5t144 -165t87.5 -202.5q28 -104 28 -213v-8q-1 -115 -29 -222t-87 -202t-143 -165.5t-204 -111.5t-262 -41q-141 0 -261 41t-204.5 111.5t-143.5 165.5t-87.5 202t-28.5 222z M246 715q1 -94 24 -181.5t70.5 -165.5t116 -136t165.5 -92t212 -34q114 0 211 34.5t164.5 93t114.5 136.5q48 78 70 166q22 84 21 171v8v8q1 91 -21 175q-22 88 -70 165.5t-116 135.5t-165 91.5t-212 34.5q-141 0 -254.5 -49.5t-184.5 -135t-108.5 -194t-37.5 -231.5z" />
<glyph unicode="P" horiz-adv-x="1466" d="M104 1303v131h811q132 0 235.5 -51t157 -133t78.5 -180q12 -49 12.5 -98.5t-12.5 -99.5q-25 -99 -78.5 -181t-157 -133.5t-235.5 -51.5h-487v-377h184v-129h-506v129h183v1174h-185zM428 631h487q82 0 148.5 29t107 76t62.5 107.5t22 123.5t-22 123.5t-62.5 107.5 t-107 76t-148.5 29h-487v-672z" />
<glyph unicode="Q" horiz-adv-x="1667" d="M109 729q1 115 30 221.5t89 199t145 161t204 108t259 39.5q142 0 261.5 -39.5t204.5 -108.5t144.5 -162.5t88 -201t28.5 -223.5q0 -131 -42 -259t-120 -228l182 -177l-96 -96l-184 174q-185 -151 -467 -151q-144 0 -264.5 40t-205 109t-143.5 163.5t-87 203.5 q-27 104 -27 219v8zM248 725q0 -122 37.5 -230t108.5 -193t185 -135t257 -50q113 0 209.5 33t164.5 90.5t116 134.5t71 165q22 85 22 175v8q-1 121 -37.5 227.5t-106.5 191t-183 134t-256 49.5q-175 -2 -310 -83.5t-206.5 -217t-71.5 -299.5z" />
<glyph unicode="R" horiz-adv-x="1525" d="M106 0v131h185v1172h-185v131h809q215 0 343.5 -119.5t130.5 -317.5q0 -207 -122.5 -317t-332.5 -123h-19l324 -426h211v-131h-379v129l-313 424h-326v-422h199v-131h-525zM432 678h473q165 0 253.5 83t90.5 232q0 137 -90.5 223.5t-243.5 86.5h-483v-625z" />
<glyph unicode="S" horiz-adv-x="1343" d="M127 170v287h129l6 -221q83 -63 191 -97.5t217 -34.5q58 0 113.5 7t116.5 26.5t106 50t74.5 83t29.5 120.5q0 43 -15 79t-40 61.5t-62.5 47t-74.5 35.5t-85.5 25.5t-85.5 18.5t-83 15q-5 1 -7 1q-67 12 -115 22t-107 27.5t-100 37t-82.5 49t-66.5 65.5t-41 85.5 t-16 112.5q0 99 46 177q47 78 125 123t170 67q87 21 183 20h9q318 0 509 -162q0 -50 -1 -140t-1 -140h-125l-6 219q-70 49 -170 73.5t-204 24.5q-77 0 -145.5 -15.5t-125 -46.5t-90 -84t-33.5 -122q0 -52 22.5 -92t56 -65.5t91.5 -46.5t108 -32.5t128 -25.5 q75 -13 122 -22.5t114 -27.5t109.5 -37.5t90 -51t74.5 -69t45 -90t18 -116.5q0 -94 -35 -167.5t-91.5 -120t-134 -76.5t-156 -42t-164.5 -12q-323 0 -541 197z" />
<glyph unicode="T" horiz-adv-x="1298" d="M70 1081v353h1159v-353h-125l-6 224h-379v-1174h190v-131h-522v131h193v1174h-379l-4 -224h-127z" />
<glyph unicode="U" horiz-adv-x="1636" d="M76 1303v131h504v-131h-189v-746q0 -108 35 -194.5t94.5 -141t136.5 -83.5t164 -29t163 29.5t134.5 84.5t92.5 141t34 193v746h-188v131h506v-131h-179v-746q0 -136 -44 -247t-120.5 -183.5t-178.5 -111t-220 -38.5q-117 0 -219.5 38.5t-180.5 110t-123.5 183 t-45.5 248.5v746h-176z" />
<glyph unicode="V" horiz-adv-x="1589" d="M25 1303v131h487v-131h-178l461 -1139l460 1139h-178v131h490v-131h-158l-537 -1307h-153l-541 1307h-153z" />
<glyph unicode="W" horiz-adv-x="2359" d="M27 1303v131h493v-131h-176l377 -1115l418 1227h86l422 -1227l372 1115h-178v131h492v-131h-156l-461 -1305h-141l-395 1124l-392 -1124h-145l-459 1305h-157z" />
<glyph unicode="X" horiz-adv-x="1425" d="M27 0v129h149l440 627l-340 547h-213v131h363v-121l281 -455l331 447h-174v129h498v-129h-164l-401 -549l391 -627h213v-129h-369v119l-327 540l-367 -530h188v-129h-499z" />
<glyph unicode="Y" horiz-adv-x="1466" d="M35 1303v131h489v-131h-172l168 -259l211 -333l217 338l166 254h-172v131h492v-131h-152l-479 -725v-449h190v-129h-524v129h193v449l-478 725h-149z" />
<glyph unicode="Z" horiz-adv-x="1251" d="M72 0v72l841 1231h-647l-4 -216h-131v347h993v-62l-850 -1237h746l4 232h129v-367h-1081z" />
<glyph unicode="[" horiz-adv-x="671" d="M199 -346v1806h397v-125h-258v-1556h258v-125h-397z" />
<glyph unicode="\" horiz-adv-x="985" d="M49 1556h141l748 -1724h-141z" />
<glyph unicode="]" horiz-adv-x="671" d="M76 -219h258v1556h-258v125h397v-1806h-397v125z" />
<glyph unicode="^" horiz-adv-x="1200" d="M98 766l443 670h114l447 -670l-4 -8h-144l-356 547l-356 -547h-142z" />
<glyph unicode="_" horiz-adv-x="1251" d="M145 -43h961v-121h-961v121z" />
<glyph unicode="`" horiz-adv-x="479" d="M45 1434h164l153 -252v-8h-122z" />
<glyph unicode="a" horiz-adv-x="1185" d="M88 295q0 92 40.5 159t106.5 101t149 50q62 12 126 12q22 1 45 -1q88 -6 168.5 -23.5t144.5 -45.5v100q0 70 -28 121.5t-77.5 79.5t-106.5 41t-126 14q-143 0 -239 -45l-4 -145h-119l-2 221q142 92 375 92q95 0 174.5 -20.5t144.5 -63.5t102 -119t37 -178v-526h175v-119 h-285l-12 186q-64 -100 -170.5 -152t-229.5 -52q-79 0 -147 18t-123 54t-87 98t-32 143zM262.5 189q43.5 -49 104.5 -69t131 -20h6q140 0 250 89q112 91 118 243q-69 40 -173 65q-96 23 -181 23h-14q-122 -2 -204 -54q-81 -51 -81 -154q0 -74 43.5 -123z" />
<glyph unicode="b" horiz-adv-x="1359" d="M45 0v121h178v1196h-178v117h311v-627q58 113 165.5 167t232.5 54q222 0 367 -140t145 -382q0 -240 -145.5 -380t-368.5 -142q-126 0 -232 55t-164 160l-8 -199h-303zM360 506q0 -170 106.5 -282.5t276.5 -112.5q166 0 278 106t112 289q0 186 -109.5 292.5t-275.5 106.5 q-172 0 -280 -115t-108 -284z" />
<glyph unicode="c" horiz-adv-x="1083" d="M96 506q0 125 42 226t115.5 164.5t169.5 97.5t206 34q179 0 344 -100l-4 -244h-119v174q-85 47 -221 47q-174 0 -287 -107.5t-113 -291.5q0 -183 115.5 -288t290.5 -105q82 0 159 29t132 85l86 -88q-76 -76 -174 -114.5t-203 -38.5q-150 0 -271 59.5t-194.5 179.5 t-73.5 281z" />
<glyph unicode="d" horiz-adv-x="1357" d="M96 506q0 122 40 222t109.5 165t162 100t198.5 35q126 0 238 -57t162 -164v510h-177v117h310v-1313h176v-121h-295q0 13 -6 102.5t-6 102.5q-59 -108 -167.5 -164.5t-232.5 -56.5q-143 0 -258 60.5t-184.5 181t-69.5 280.5zM229 508q0 -183 111.5 -290t277.5 -107 q174 0 280 113t106 288q0 171 -106.5 282t-279.5 111q-168 0 -278.5 -105.5t-110.5 -291.5z" />
<glyph unicode="e" horiz-adv-x="1200" d="M94 508q0 229 145.5 375.5t370.5 146.5q91 0 170.5 -21.5t147 -67t113 -112.5t65.5 -163q13 -62 14 -134q0 -38 -4 -79h-889q15 -161 125 -252.5t266 -91.5q99 0 197 38.5t150 104.5l88 -80q-72 -90 -191.5 -138t-245.5 -48q-150 0 -267.5 62t-186 181.5t-68.5 278.5z M227 563h764q-3 166 -105 256t-274 90q-153 0 -260 -91.5t-125 -254.5z" />
<glyph unicode="f" horiz-adv-x="743" d="M59 891v115h203v88q0 165 80.5 257t241.5 93q105 0 190 -55l-47 -105q-70 43 -143 43q-191 0 -191 -233v-88h297v-115h-297v-772h221v-117h-524v117h172v772h-203z" />
<glyph unicode="g" horiz-adv-x="1355" d="M94 508q0 158 70.5 277.5t187.5 180.5q115 60 255 60h5q125 0 234.5 -57t161.5 -162q0 15 2 103.5t2 101.5h301v-119h-174v-920q0 -124 -40.5 -221t-110.5 -155.5t-158.5 -88.5t-190.5 -30q-220 0 -351 98t-138 270h129q9 -120 108 -183.5t254 -63.5q73 0 137.5 21.5 t117 65t83.5 117.5t31 170v232q-57 -110 -168 -167q-106 -56 -222 -56h-8q-145 0 -262 61.5t-186.5 182.5t-69.5 282zM225 504q0 -180 115 -290t283 -110q77 0 141.5 22t109.5 60.5t76.5 89.5t46.5 109.5t15 120.5q0 165 -105 279t-286 114q-171 0 -283.5 -109.5 t-112.5 -285.5z" />
<glyph unicode="h" horiz-adv-x="1337" d="M43 0v119h180v1198h-176v119h307v-615q61 106 158 154.5t209 48.5q207 0 312.5 -120t105.5 -333v-452h176v-119h-461v119h152v448q0 164 -77 247t-227 85h-3q-146 0 -244 -99q-99 -100 -99 -251v-430h166v-119h-479z" />
<glyph unicode="i" horiz-adv-x="608" d="M72 0v121h178v774h-174v121h307v-895h178v-121h-489zM223 1331q0 44 28.5 68t65.5 24q38 0 66.5 -24t28.5 -68q0 -46 -28.5 -69t-66.5 -23q-37 0 -65.5 24t-28.5 68z" />
<glyph unicode="j" horiz-adv-x="530" d="M-113 -446l43 108q70 -37 146 -37q41 1 69.5 13t45 31t26 51t12 63t2.5 76v1034h-188v119h319v-1153q0 -84 -13 -146t-44 -111.5t-87 -74.5t-138 -25q-99 0 -193 52zM203 1335q0 44 28.5 68t67.5 24q37 0 64.5 -24t27.5 -68q0 -46 -27.5 -69t-66.5 -23q-37 0 -65.5 24 t-28.5 68z" />
<glyph unicode="k" horiz-adv-x="1142" d="M47 0v121h174v1192h-174v121h307v-891l246 219l164 137l-139 2v113h440v-115h-125l-362 -311l344 -467h176v-121h-314v88l-305 420l-125 -105v-282h156v-121h-463z" />
<glyph unicode="l" horiz-adv-x="585" d="M45 0v121h182v1194h-176v119h307v-1313h177v-121h-490z" />
<glyph unicode="m" horiz-adv-x="2043" d="M74 0v121h176v770h-174v121h303l4 -166q43 93 128.5 138.5t186.5 45.5q85 0 153.5 -22.5t123.5 -77.5t80 -139q50 120 147.5 179.5t218.5 59.5q199 0 311.5 -119t112.5 -319v-471h174v-121h-469v121h162v471q0 142 -77 226.5t-218 84.5q-132 0 -216.5 -89.5t-84.5 -225.5 v-467h166v-121h-465v121h168v467q0 140 -81.5 227.5t-221.5 87.5q-132 -1 -214.5 -90.5t-82.5 -224.5v-467h168v-121h-479z" />
<glyph unicode="n" horiz-adv-x="1380" d="M72 0v121h180v772h-176v119h297l6 -183q125 201 360 201q214 0 326.5 -120t112.5 -341v-448h180v-121h-471v121h157v446q0 172 -77 255t-238 83q-150 0 -248 -99t-98 -253v-432h168v-121h-479z" />
<glyph unicode="o" horiz-adv-x="1230" d="M94 504q0 156 69 277.5t187 186t264 64.5q227 0 375 -146.5t148 -381.5q0 -232 -149 -376t-374 -144q-224 0 -372 144t-148 376zM227 504q0 -176 110.5 -285.5t276.5 -109.5q167 0 279 109.5t113 285.5q0 181 -112 293t-278 112q-167 0 -278 -112t-111 -293z" />
<glyph unicode="p" horiz-adv-x="1359" d="M47 893v119h303q0 -13 2 -106.5t2 -108.5q59 108 170 169q106 58 226 58h8q146 -2 260 -63t181 -179.5t67 -277.5q0 -235 -144 -379.5t-368 -144.5q-124 0 -235.5 56.5t-168.5 164.5v-568h180v-120h-467v120h158v1260h-174zM365 496q0 -167 104.5 -280t278.5 -114 q167 0 276 108.5t109 289.5q0 189 -109 292t-281 103q-176 0 -277 -113.5t-101 -285.5z" />
<glyph unicode="q" horiz-adv-x="1306" d="M94 508q0 235 143.5 376.5t366.5 143.5q126 0 236.5 -59t167.5 -166l4 209h127v-1379h157v-118h-465v118h181v570q-55 -109 -168 -166t-238 -57q-110 0 -204.5 37.5t-162.5 105t-106.5 167t-38.5 218.5zM229 504q0 -182 108 -288.5t281 -106.5t278 113t105 280 q0 172 -103 285.5t-280 113.5q-170 0 -279.5 -106t-109.5 -291z" />
<glyph unicode="r" horiz-adv-x="950" d="M74 893v119h293l12 -168q44 89 133.5 136.5t196.5 47.5q116 0 225 -67l-60 -113q-85 51 -174 51q-147 -3 -232 -90.5t-85 -230.5v-461h172v-117h-479v117h174v776h-176z" />
<glyph unicode="s" horiz-adv-x="1038" d="M106 98l5 238h116l4 -158q142 -76 297 -76q49 0 95 8t93 26q48 18 76 56q30 39 29 93q1 35 -15 63q-16 30 -43 48.5t-69 32.5t-82.5 21t-95.5 13q-47 7 -80 13t-78.5 17.5t-77 25t-65.5 35t-54.5 47.5t-34 63t-13.5 85q-1 71 33 129t93.5 92.5t130.5 51.5q67 16 141 16h9 q207 0 377 -92l-6 -231h-115l-4 155q-47 25 -119 39.5t-133 14.5q-124 0 -200 -46q-76 -45 -76 -131q0 -31 11 -54t32 -39.5t44.5 -28t58.5 -20t64 -13.5t70 -10q169 -25 243 -54q183 -70 183 -246v-6q-1 -78 -37 -136.5t-97.5 -92.5t-135 -50.5t-156.5 -16.5 q-119 0 -213.5 27.5t-204.5 90.5z" />
<glyph unicode="t" horiz-adv-x="763" d="M18 897v113h209v288l133 15v-303h330v-113h-332v-575q0 -106 38 -161t136 -55q76 0 156 41l41 -110q-102 -48 -199 -51h-4q-154 0 -226 84q-72 85 -73 252v575h-209z" />
<glyph unicode="u" horiz-adv-x="1345" d="M20 895v117h302v-568q0 -335 327 -335q150 1 245 101t95 251v434h-176v117h309v-891h178v-121h-286l-21 184q-126 -197 -366 -200q-214 0 -326.5 120.5t-112.5 337.5v453h-168z" />
<glyph unicode="v" horiz-adv-x="1271" d="M33 895v119h436v-119h-147l186 -428l129 -330l127 332l188 426h-149v119h432v-119h-141l-385 -899h-146l-383 899h-147z" />
<glyph unicode="w" horiz-adv-x="1837" d="M37 895v119h440v-119h-147l250 -752l290 871h101l291 -871l247 752h-157v119h446v-119h-147l-314 -897h-149l-139 393l-127 406l-129 -406l-142 -393h-149l-316 897h-149z" />
<glyph unicode="x" horiz-adv-x="1128" d="M43 0v119h133l303 405l-262 371h-141v117h284v-105l205 -295l131 172l84 111h-147v117h426v-117h-131l-283 -377l295 -399h141v-119h-286v106l-238 324l-131 -176l-102 -135h149v-119h-430z" />
<glyph unicode="y" horiz-adv-x="1294" d="M20 893v119h306v-568q0 -160 88 -250q86 -88 240 -88h3q145 1 240.5 103.5t95.5 251.5v432h-174v119h307v-1049q0 -119 -34.5 -212t-96.5 -151.5t-145 -89t-182 -30.5q-206 0 -323.5 97t-131.5 267h127q27 -237 326 -237q70 0 129 21.5t105.5 64t72.5 111.5t26 159v221 q-112 -196 -366 -200q-202 0 -322.5 122t-120.5 336v451h-170z" />
<glyph unicode="z" horiz-adv-x="993" d="M76 0v47l610 844h-455l-4 -166h-116v287h768v-66l-600 -821h493l6 186h117v-311h-819z" />
<glyph unicode="{" horiz-adv-x="655" d="M76 547v104q157 0 157 226v297q0 181 83 251t259 33v-100q-113 24 -160.5 -17t-47.5 -172v-292q0 -38 -1 -59t-4.5 -54.5t-13 -54.5t-24.5 -44.5t-40.5 -39.5t-60.5 -25q30 -8 53.5 -22t38.5 -29t25.5 -39t15.5 -41.5t7.5 -48.5t3 -47t0.5 -49v-295q0 -130 46.5 -167 t164.5 -18l-3 -106q-180 -34 -261 35t-81 250v301q0 223 -157 223z" />
<glyph unicode="|" horiz-adv-x="532" d="M201 -227v1697h131v-1697h-131z" />
<glyph unicode="}" horiz-adv-x="655" d="M78 -164q118 -21 164.5 15.5t46.5 166.5v297q0 34 0.5 49t2.5 47t7 49t15.5 42t25 39.5t37.5 28.5t53 22q-30 8 -53 22t-38 29t-25.5 39t-15.5 42t-7.5 48.5t-3 47.5t-0.5 50v291q0 131 -48 172t-161 17v102q176 35 259 -35.5t83 -251.5v-295q0 -225 158 -225v-102 q-158 0 -158 -226v-301q0 -179 -80.5 -246.5t-261.5 -35.5v102z" />
<glyph unicode="~" horiz-adv-x="1292" d="M150 563q45 134 158 189t251 -9l229 -114q84 -44 149 -22t107 118l103 -41q-52 -137 -150.5 -181t-244.5 17l-234 119q-57 24 -107.5 25.5t-94.5 -34t-72 -106.5z" />
<glyph unicode="&#xa1;" horiz-adv-x="514" d="M156 913q0 47 29 72t69 25q39 0 67.5 -26t28.5 -71q0 -47 -29 -71.5t-69 -24.5q-39 0 -67.5 25.5t-28.5 70.5zM186 -430v1124h142v-1124h-142z" />
<glyph unicode="&#xa2;" d="M268 485q0 213 127.5 351t331.5 163v127h125v-127q182 -22 307 -147l-84 -84q-57 56 -132 85.5t-152 29.5q-168 0 -281 -107t-113 -291q0 -95 31 -171.5t85.5 -125t125.5 -74.5t152 -26q75 0 151.5 32t134.5 89l84 -94q-130 -130 -309 -146v-147h-127l2 147 q-201 23 -330 160t-129 356z" />
<glyph unicode="&#xa3;" d="M168 0l2 127q71 64 116 131t61 126.5t19 122.5t-10 120h-188v116h160l-13.5 49.5t-15 56t-11.5 50.5t-9.5 63t-2.5 62q0 105 38.5 187t106.5 133t157.5 77.5t195.5 26.5q98 0 178 -20t146 -62.5t104 -119t39 -181.5h-127q-1 75 -30.5 128t-80 80.5t-106 39.5t-123.5 12 q-167 0 -265.5 -78.5t-98.5 -220.5q0 -35 5 -74.5t10.5 -66t16 -72t15.5 -68.5h514v-114h-488q61 -308 -155 -506h800l5 225h127v-350h-1092z" />
<glyph unicode="&#xa4;" horiz-adv-x="1167" d="M123 289l121 121q-79 111 -78.5 251.5t78.5 251.5l-121 121l96 96l121 -122q99 71 244 71q137 0 241 -71l123 122l96 -96l-120 -121q78 -110 77.5 -252t-79.5 -251l122 -121l-96 -96l-125 122q-98 -67 -241 -67q-139 0 -242 67l-121 -122zM281 662q0 -124 80.5 -214 t220.5 -90q141 0 221 90t80 214q0 126 -80 217.5t-221 91.5q-140 0 -220.5 -91.5t-80.5 -217.5z" />
<glyph unicode="&#xa5;" d="M18 1303v131h492v-131h-176l381 -596l389 596h-178v131h491v-131h-151l-396 -601h228v-108h-301l-11 -25v-98h316v-109h-316v-233h191v-129h-522v129h190v233h-311v109h311v98l-10 25h-301v108h229l-393 601h-152z" />
<glyph unicode="&#xa6;" horiz-adv-x="546" d="M203 -180v743h141v-743h-141zM203 700v748h141v-748h-141z" />
<glyph unicode="&#xa7;" horiz-adv-x="1136" d="M113 162l92 88q63 -83 160.5 -123.5t207.5 -40.5q51 0 99.5 8t96 26t77.5 53.5t31 84.5q5 140 -314 172q-83 7 -154 25.5t-133 51t-98 85.5t-37 121q-2 75 54 144t155 91q-95 24 -150 83t-55 145q1 74 39 132t101.5 91t138 49.5t156.5 15.5q249 0 393 -141l-88 -78 q-67 57 -139.5 79t-170.5 24q-122 2 -208.5 -43t-85.5 -127q2 -138 292 -170q56 -5 101.5 -11.5t101 -19.5t96 -34.5t75.5 -51.5t52 -75t15 -101q-3 -87 -63.5 -145t-153.5 -76q104 -30 162 -92.5t55 -149.5q-2 -66 -31.5 -118t-75 -83t-105.5 -51.5t-117 -28.5t-116 -8 q-142 0 -265 51t-191 148zM272 713q1 -75 90.5 -120.5t210.5 -45.5q80 0 148 17.5t113 56t45 92.5q0 44 -27 79.5t-72 56.5t-97 32.5t-108 13.5q-132 0 -218 -44.5t-85 -137.5z" />
<glyph unicode="&#xa8;" horiz-adv-x="956" d="M125 1378q0 43 28 67.5t66 24.5t66 -24.5t28 -67.5t-28 -67.5t-66 -24.5t-66 24.5t-28 67.5zM580 1378q0 43 28 67.5t66 24.5t66 -24.5t28 -67.5t-28 -67.5t-66 -24.5t-66 24.5t-28 67.5z" />
<glyph unicode="&#xa9;" horiz-adv-x="1703" d="M111 717q0 152 50 287t142.5 237.5t235 162.5t315.5 60q169 0 310 -60t234 -162.5t144 -238t51 -286.5t-50 -286t-141.5 -238t-233.5 -163.5t-314 -60.5q-173 0 -315.5 60t-235 163t-142.5 238t-50 287zM238 715q0 -132 42 -247.5t119.5 -202t195 -136t259.5 -49.5 q143 0 260 49.5t193.5 136t117.5 201.5t41 248t-41 248t-117.5 201.5t-193.5 136t-260 49.5q-142 0 -259.5 -49.5t-195 -136t-119.5 -202t-42 -247.5zM473 721q0 177 115.5 289t288.5 112q166 0 284 -118l-78 -84q-84 84 -202 84q-122 0 -204.5 -78.5t-82.5 -206.5 q0 -124 83 -203.5t202 -79.5q116 0 202 86l82 -82q-118 -118 -284 -118q-173 0 -289.5 111t-116.5 288z" />
<glyph unicode="&#xaa;" horiz-adv-x="1024" d="M143 1104q0 159 97.5 250.5t244.5 93.5q74 0 142.5 -35t107.5 -96v119h109v-664h-109l-2 121q-41 -65 -109 -99t-143 -34q-145 0 -241.5 92.5t-96.5 251.5zM170 528v111h694v-111h-694zM262 1104q0 -106 66 -171t164 -65q49 0 90.5 16t68 43t45.5 62t23.5 74t0.5 77.5 t-22.5 73.5t-45 62t-67.5 43t-91 16q-99 0 -165.5 -63.5t-66.5 -167.5z" />
<glyph unicode="&#xab;" horiz-adv-x="862" d="M98 608l283 451h143l-278 -451l278 -452h-143zM336 608l282 451h144l-279 -451l279 -452h-144z" />
<glyph unicode="&#xac;" horiz-adv-x="1042" d="M152 627v123h731v-402h-123v279h-608z" />
<glyph unicode="&#xad;" horiz-adv-x="1015" d="M145 524v127h725v-127h-725z" />
<glyph unicode="&#xae;" horiz-adv-x="1695" d="M109 713q0 152 49.5 287t141 237.5t233.5 162.5t315 60t314.5 -60t233 -162.5t141.5 -237.5t50 -287q0 -151 -50 -286t-141.5 -238t-233.5 -163.5t-314 -60.5q-173 0 -315 60t-233.5 163t-141 238t-49.5 287zM236 713q0 -182 70.5 -324t210.5 -224.5t331 -82.5 q142 0 259 49.5t193.5 135t118 201t41.5 247.5t-41.5 247.5t-118 202t-193.5 136t-259 49.5q-143 0 -260 -49.5t-193.5 -136t-117.5 -202.5t-41 -249zM565 336v774h350q80 0 140 -33.5t89.5 -84t34 -111t-16.5 -114t-73 -93t-126 -47.5l237 -271v-20h-129l-233 280h-158 v-280h-115zM680 717h229q95 0 135 71t2.5 142t-131.5 71h-235v-284z" />
<glyph unicode="&#xaf;" horiz-adv-x="1097" d="M221 1321v117h656v-117h-656z" />
<glyph unicode="&#xb0;" horiz-adv-x="657" d="M113 1235q-3 35 1.5 70t23 66.5t44 56t65 39t85.5 14.5q59 0 105 -23.5t70 -60.5t35.5 -82t1 -90t-34.5 -82t-70 -60.5t-105 -23.5q-49 0 -90 14.5t-66.5 39t-43.5 56t-21 66.5zM206.5 1232q7.5 -37 41 -63t84.5 -26q47 0 79.5 26t39.5 63t-1 74t-40.5 63t-79.5 26 t-80.5 -26t-42 -63t-1 -74z" />
<glyph unicode="&#xb1;" horiz-adv-x="1069" d="M145 696v123h326v328h127v-328h324v-123h-324v-331h-127v331h-326zM158 84v121h755v-121h-755z" />
<glyph unicode="&#xb2;" horiz-adv-x="729" d="M78 879v168q0 208 264 233q45 3 75 9t59.5 18.5t44 35.5t14.5 58q0 123 -175 123q-167 0 -167 -123h-109q0 60 23.5 105t64.5 69t87.5 35.5t100.5 11.5q44 0 83 -6.5t76.5 -22.5t64 -40.5t43 -63.5t16.5 -88q0 -51 -18 -89t-43 -59.5t-66.5 -35.5t-71.5 -19t-75 -10 q-31 -3 -51 -6.5t-47.5 -13t-43.5 -24t-27.5 -40t-11.5 -60.5v-63h351l2 109h102v-211h-565z" />
<glyph unicode="&#xb3;" horiz-adv-x="731" d="M74 1065h108q3 -47 33 -76t65.5 -38t79.5 -9q27 0 50 3t48.5 12t43.5 23.5t29.5 39t11.5 57.5q0 63 -45 98.5t-131 36.5h-64l-8 33l182 254h-282l-5 -94h-96v190h541v-41l-191 -258q96 -8 153.5 -61.5t57.5 -157.5q0 -53 -17.5 -94.5t-46 -68.5t-67.5 -44.5t-80 -24.5 t-86 -7q-55 0 -104 12.5t-90 38.5t-65 71t-25 105z" />
<glyph unicode="&#xb4;" horiz-adv-x="464" d="M51 1174v8l154 252h164l-195 -260h-123z" />
<glyph unicode="&#xb5;" horiz-adv-x="1255" d="M133 -459v1471h131v-596q0 -102 50 -179t124.5 -114.5t159.5 -38.5q64 0 123 21.5t108 64t78 113.5t29 161v568h131v-1012h-119l-10 158q-29 -65 -87 -110t-123.5 -64t-133.5 -17q-108 0 -203.5 45t-132.5 135v-606h-125z" />
<glyph unicode="&#xb6;" horiz-adv-x="1624" d="M63 909q1 99 35 191.5t97 167t163 119.5t222 45h974v-123h-211v-1751h-126v1751h-527v-1751h-131v831q-121 2 -218 47.5t-156.5 119.5t-91 164.5t-30.5 188.5z" />
<glyph unicode="&#xb7;" horiz-adv-x="483" d="M145 588q0 44 30 69.5t66.5 25.5t66.5 -25.5t30 -69.5q0 -45 -30 -70.5t-66.5 -25.5t-66.5 25.5t-30 70.5z" />
<glyph unicode="&#xb8;" horiz-adv-x="645" d="M49 -324l66 60q55 -76 155 -76q43 0 77 20t44 58q18 61 -36.5 97.5t-149.5 8.5l-29 17l47 184h103l-29 -117q82 3 133.5 -30.5t65.5 -81.5t2 -101q-21 -77 -84.5 -116t-143.5 -39q-71 2 -130 31t-91 85z" />
<glyph unicode="&#xb9;" horiz-adv-x="489" d="M68 864v97h133v505l-115 -30v100l225 55v-630h135v-97h-378z" />
<glyph unicode="&#xba;" horiz-adv-x="987" d="M150 1104q0 160 97 251t245 91q147 0 244.5 -91t97.5 -251t-97.5 -253t-244.5 -93t-244.5 93t-97.5 253zM166 520v109h659v-109h-659zM266 1104q0 -107 63 -171.5t163 -64.5q102 0 164.5 64t62.5 172q0 106 -64.5 171.5t-162.5 65.5t-162 -65.5t-64 -171.5z" />
<glyph unicode="&#xbb;" horiz-adv-x="862" d="M102 160l279 450l-279 449h142l282 -449l-282 -450h-142zM340 160l276 450l-276 449h141l283 -449l-283 -450h-141z" />
<glyph unicode="&#xbc;" horiz-adv-x="1486" d="M96 713v96h129v504l-110 -25v96l221 54v-629h135v-96h-375zM279 -4l765 1446h130l-768 -1446h-127zM823 248l359 485h149v-473h86v-100h-86v-158h-108v158h-392zM948 260h275v369z" />
<glyph unicode="&#xbd;" horiz-adv-x="1605" d="M96 713v96h129v506l-112 -27v98l223 54v-631h135v-96h-375zM276 -4l768 1446h127l-768 -1446h-127zM948 -2v170q0 206 264 231q37 4 60.5 7.5t51.5 12t43.5 21t26.5 33.5t11 49q0 123 -174 123q-168 0 -168 -123h-109q0 60 24 104t64.5 68t87.5 35.5t101 11.5 q56 0 103.5 -11t89 -35t65.5 -69t24 -106q0 -51 -18 -89t-43 -59.5t-66.5 -35.5t-71.5 -19t-75 -10q-32 -3 -51 -6t-47 -12.5t-43.5 -23t-27 -39t-11.5 -60.5v-64h350l2 107h102v-211h-565z" />
<glyph unicode="&#xbe;" horiz-adv-x="1583" d="M86 930h107q3 -66 54.5 -93.5t121.5 -27.5q33 0 61.5 5.5t57 19t45 41.5t16.5 67q0 62 -46 97t-130 36h-62l-8 31l178 246h-276l-4 -90h-95v186h529v-39l-189 -252q96 -6 153.5 -59t57.5 -156q0 -52 -17 -93.5t-45 -67.5t-66 -43t-78 -24t-84 -7q-55 0 -103.5 12.5 t-89 38t-64 70t-24.5 102.5zM373 -6l796 1452h129l-798 -1452h-127zM903 250l359 495h149v-483h102v-100h-102v-164h-108v164h-392zM1028 262h275v377z" />
<glyph unicode="&#xbf;" horiz-adv-x="1212" d="M70 0q0 54 11.5 101t28.5 81.5t45 64.5t53.5 50t62 39t62 29.5t60.5 23.5q55 19 89 37t58.5 41.5t36 59t16 80t3.5 112.5h141q2 -142 -28 -228t-91 -133.5t-174 -85.5q-54 -18 -91 -37t-71 -50t-50.5 -77t-16.5 -108q0 -68 25 -121t64 -84.5t94 -52t108 -28t112 -7.5 q55 0 107 8.5t104 30t90.5 53.5t63 84.5t25.5 118.5l141 -2q0 -90 -30 -162.5t-80.5 -120t-120 -79.5t-144.5 -46t-158 -14q-85 0 -161 13t-147.5 44.5t-123.5 78.5t-83 120.5t-31 165.5zM567 942q0 47 29 72.5t70 25.5q39 0 67.5 -25.5t28.5 -72.5q0 -46 -29 -71t-69 -25 t-69 25.5t-28 70.5z" />
<glyph unicode="&#xc0;" horiz-adv-x="1646" d="M16 0v129h146l530 1176h-180v129h399l580 -1305h145v-129h-483v129h184q-26 59 -71 163t-58 134h-762q-86 -192 -131 -297h183v-129h-482zM502 553h649q-46 107 -149.5 351t-167.5 392q-255 -569 -332 -743zM567 1796h164l154 -254v-8h-123z" />
<glyph unicode="&#xc1;" horiz-adv-x="1646" d="M16 0v129h146l530 1176h-180v129h399l580 -1305h145v-129h-483v129h184q-26 59 -71 163t-58 134h-762q-86 -192 -131 -297h183v-129h-482zM502 553h649q-46 107 -149.5 351t-167.5 392q-255 -569 -332 -743zM743 1532v8l154 252h164l-195 -260h-123z" />
<glyph unicode="&#xc2;" horiz-adv-x="1646" d="M16 0v129h146l530 1176h-180v129h399l580 -1305h145v-129h-483v129h184q-26 59 -71 163t-58 134h-762q-86 -192 -131 -297h183v-129h-482zM489 1520v10l275 252h94l279 -252v-10h-142l-184 166l-182 -166h-140zM502 553h649q-46 107 -149.5 351t-167.5 392 q-255 -569 -332 -743z" />
<glyph unicode="&#xc3;" horiz-adv-x="1646" d="M16 0v129h146l530 1176h-180v129h399l580 -1305h145v-129h-483v129h184q-26 59 -71 163t-58 134h-762q-86 -192 -131 -297h183v-129h-482zM502 553h649q-46 107 -149.5 351t-167.5 392q-255 -569 -332 -743zM514 1602q22 87 87 122t149 0q8 -2 53 -25.5t53 -25.5 q89 -42 121 56l90 -37q-15 -64 -51.5 -101.5t-82 -42t-97.5 16.5q-8 2 -53.5 26t-51.5 25q-95 43 -127 -57z" />
<glyph unicode="&#xc4;" horiz-adv-x="1646" d="M16 0v129h146l530 1176h-180v129h399l580 -1305h145v-129h-483v129h184q-26 59 -71 163t-58 134h-762q-86 -192 -131 -297h183v-129h-482zM498 1624q0 43 28 67.5t66 24.5t65 -24.5t27 -67.5t-27.5 -67.5t-64.5 -24.5q-38 0 -66 24.5t-28 67.5zM502 553h649 q-46 107 -149.5 351t-167.5 392q-255 -569 -332 -743zM952 1624q0 43 28.5 67.5t66.5 24.5t65 -24.5t27 -67.5t-27 -67.5t-65 -24.5t-66.5 24.5t-28.5 67.5z" />
<glyph unicode="&#xc5;" horiz-adv-x="1646" d="M16 0v129h146l561 1239q-44 21 -71 62t-33.5 70t-6.5 52q0 99 66.5 155t157.5 56t158 -56t67 -153q0 -68 -32.5 -116t-88.5 -72l551 -1237h145v-129h-481v129h184q-25 53 -68 153t-63 144h-762l-131 -297h183v-129h-482zM502 553h649q-11 25 -140.5 342.5t-174.5 421.5z M709 1552q0 -50 35.5 -84t91.5 -34q59 0 94 34t35 86q-2 51 -37 85t-92 34q-58 0 -92.5 -34t-34.5 -87z" />
<glyph unicode="&#xc6;" horiz-adv-x="1986" d="M14 0v131h158l741 1174h-186v129h1128v-351h-126l-5 222h-548v-510h546v-131h-546v-531h579l4 221h127v-354h-1022v131h176v340h-499l-211 -340h186v-131h-502zM610 588h430l2 696z" />
<glyph unicode="&#xc7;" horiz-adv-x="1447" d="M109 709q-1 116 28 224t90 203t147.5 165.5t209.5 111.5t268 41q126 0 247.5 -43t219.5 -125q0 -199 -2 -297h-127l-4 232q-139 98 -334 98q-146 0 -263 -50t-190 -135t-111 -193t-38 -230q2 -123 41.5 -230t113.5 -188.5t189 -128.5t258 -47q115 0 227.5 45t196.5 129 l100 -94q-103 -103 -238 -157.5t-276 -57.5l-33 -113q120 4 171 -63.5t30 -151.5q-19 -75 -84.5 -115.5t-144.5 -40.5q-67 0 -127 28.5t-94 82.5l67 63q54 -73 152 -73q44 2 78.5 21t44.5 54q18 61 -38 98t-153 11l-22 18l55 187q-159 13 -285.5 77t-205.5 163t-121 221.5 t-43 259.5z" />
<glyph unicode="&#xc8;" horiz-adv-x="1396" d="M102 0v129h185v1176h-181v129h1160v-351h-127l-4 220h-707v-508h698v-133h-698v-529h737l4 221h127v-354h-1194zM512 1806h162l155 -254v-8h-122z" />
<glyph unicode="&#xc9;" horiz-adv-x="1396" d="M102 0v129h185v1176h-181v129h1160v-351h-127l-4 220h-707v-508h698v-133h-698v-529h737l4 221h127v-354h-1194zM684 1542v8l154 252h163l-194 -260h-123z" />
<glyph unicode="&#xca;" horiz-adv-x="1396" d="M102 0v129h185v1176h-181v129h1160v-351h-127l-4 220h-707v-508h698v-133h-698v-529h737l4 221h127v-354h-1194zM414 1540v10l278 262h96l279 -260v-12h-139l-189 172l-186 -172h-139z" />
<glyph unicode="&#xcb;" horiz-adv-x="1396" d="M102 0v129h185v1176h-181v129h1160v-351h-127l-4 220h-707v-508h698v-133h-698v-529h737l4 221h127v-354h-1194zM422 1647q0 43 28 67.5t66 24.5t66 -24.5t28 -67.5t-28 -68t-66 -25t-66 25t-28 68zM877 1647q0 43 28 67.5t66 24.5t66 -24.5t28 -67.5t-28 -68t-66 -25 t-66 25t-28 68z" />
<glyph unicode="&#xcc;" horiz-adv-x="722" d="M102 0v129h189v1176h-185v129h510v-129h-186v-1176h191v-129h-519zM119 1798h164l153 -254v-8h-123z" />
<glyph unicode="&#xcd;" horiz-adv-x="722" d="M102 0v129h189v1176h-185v129h510v-129h-186v-1176h191v-129h-519zM293 1536v10l151 252h166l-194 -262h-123z" />
<glyph unicode="&#xce;" horiz-adv-x="722" d="M53 1532v10l262 273h91l262 -271v-12h-133l-177 178l-174 -178h-131zM102 0v129h189v1176h-185v129h510v-129h-186v-1176h191v-129h-519z" />
<glyph unicode="&#xcf;" horiz-adv-x="722" d="M78 1622q0 43 28 68.5t66 25.5t65 -24.5t27 -67.5t-27 -67.5t-65 -24.5q-38 -2 -66 22.5t-28 67.5zM102 0v129h189v1176h-185v129h510v-129h-186v-1176h191v-129h-519zM465 1622q0 43 28 68.5t66 25.5t65 -25t27 -69q0 -43 -27 -67.5t-65 -24.5t-66 24.5t-28 67.5z" />
<glyph unicode="&#xd0;" horiz-adv-x="1607" d="M102 0v129h187v526h-166v123h166v529h-183v129h668q142 0 261.5 -37t203.5 -102.5t143 -154.5t87.5 -192.5t29.5 -218.5q1 -116 -26 -222.5t-84.5 -199.5t-141.5 -161.5t-205.5 -108t-267.5 -39.5h-672zM430 131h344q117 0 215 34t165.5 91.5t114.5 134.5t68.5 163.5 t20.5 178.5q-1 113 -38 214t-107.5 182t-183.5 128.5t-255 47.5h-344v-527h299v-123h-299v-524z" />
<glyph unicode="&#xd1;" horiz-adv-x="1708" d="M102 1305v129h281l915 -1170v1041h-184v129h504v-129h-180v-1305h-101l-909 1157v-1028h184v-129h-506v129h181v1176h-185zM547 1630q23 91 94 127.5t160 1.5q9 -2 56.5 -27.5t55.5 -27.5q42 -21 78.5 -7.5t50.5 64.5l99 -39q-24 -97 -96.5 -132t-149.5 3 q-10 2 -58.5 26.5t-56.5 25.5q-40 21 -79 7t-58 -65z" />
<glyph unicode="&#xd2;" horiz-adv-x="1662" d="M106 715q0 119 30 228.5t91 203t146.5 162.5t203 108t254.5 39q141 0 261 -41t204.5 -111.5t144 -165t88 -202t27.5 -221.5q-1 -115 -29 -222t-87 -202t-143 -165.5t-204 -111.5t-262 -41q-141 0 -261 41t-204.5 111.5t-143.5 165.5t-87.5 202t-28.5 222zM246 715 q1 -94 24 -181.5t70.5 -165.5t116 -136t165.5 -92t212 -34q114 0 211 34.5t164.5 93t114.5 136.5t69.5 165.5t21.5 179.5q1 95 -21.5 183t-70 165.5t-115.5 135.5t-165 91.5t-212 34.5q-141 0 -254.5 -49.5t-184.5 -135t-108.5 -194t-37.5 -231.5zM602 1851h166l152 -252 v-10h-123z" />
<glyph unicode="&#xd3;" horiz-adv-x="1662" d="M106 715q0 119 30 228.5t91 203t146.5 162.5t203 108t254.5 39q141 0 261 -41t204.5 -111.5t144 -165t88 -202t27.5 -221.5q-1 -115 -29 -222t-87 -202t-143 -165.5t-204 -111.5t-262 -41q-141 0 -261 41t-204.5 111.5t-143.5 165.5t-87.5 202t-28.5 222zM246 715 q1 -94 24 -181.5t70.5 -165.5t116 -136t165.5 -92t212 -34q114 0 211 34.5t164.5 93t114.5 136.5t69.5 165.5t21.5 179.5q1 95 -21.5 183t-70 165.5t-115.5 135.5t-165 91.5t-212 34.5q-141 0 -254.5 -49.5t-184.5 -135t-108.5 -194t-37.5 -231.5zM764 1585v8l154 254h163 l-194 -262h-123z" />
<glyph unicode="&#xd4;" horiz-adv-x="1662" d="M106 715q0 119 30 228.5t91 203t146.5 162.5t203 108t254.5 39q141 0 261 -41t204.5 -111.5t144 -165t88 -202t27.5 -221.5q-1 -115 -29 -222t-87 -202t-143 -165.5t-204 -111.5t-262 -41q-141 0 -261 41t-204.5 111.5t-143.5 165.5t-87.5 202t-28.5 222zM246 715 q1 -94 24 -181.5t70.5 -165.5t116 -136t165.5 -92t212 -34q114 0 211 34.5t164.5 93t114.5 136.5t69.5 165.5t21.5 179.5q1 95 -21.5 183t-70 165.5t-115.5 135.5t-165 91.5t-212 34.5q-141 0 -254.5 -49.5t-184.5 -135t-108.5 -194t-37.5 -231.5zM504 1583v10l293 275h94 l293 -275v-10h-140l-200 184l-199 -184h-141z" />
<glyph unicode="&#xd5;" horiz-adv-x="1662" d="M106 715q0 119 30 228.5t91 203t146.5 162.5t203 108t254.5 39q141 0 261 -41t204.5 -111.5t144 -165t88 -202t27.5 -221.5q-1 -115 -29 -222t-87 -202t-143 -165.5t-204 -111.5t-262 -41q-141 0 -261 41t-204.5 111.5t-143.5 165.5t-87.5 202t-28.5 222zM246 715 q1 -94 24 -181.5t70.5 -165.5t116 -136t165.5 -92t212 -34q114 0 211 34.5t164.5 93t114.5 136.5t69.5 165.5t21.5 179.5q1 95 -21.5 183t-70 165.5t-115.5 135.5t-165 91.5t-212 34.5q-141 0 -254.5 -49.5t-184.5 -135t-108.5 -194t-37.5 -231.5zM563 1659 q22 89 87.5 124.5t150.5 0.5q6 -2 51 -26t53 -25q95 -43 127 57l90 -39q-15 -64 -51.5 -101.5t-82.5 -42.5t-99 17q-8 2 -54 27t-53 26q-40 21 -76.5 7.5t-52.5 -64.5z" />
<glyph unicode="&#xd6;" horiz-adv-x="1662" d="M106 715q0 119 30 228.5t91 203t146.5 162.5t203 108t254.5 39q141 0 261 -41t204.5 -111.5t144 -165t88 -202t27.5 -221.5q-1 -115 -29 -222t-87 -202t-143 -165.5t-204 -111.5t-262 -41q-141 0 -261 41t-204.5 111.5t-143.5 165.5t-87.5 202t-28.5 222zM246 715 q1 -94 24 -181.5t70.5 -165.5t116 -136t165.5 -92t212 -34q114 0 211 34.5t164.5 93t114.5 136.5t69.5 165.5t21.5 179.5q1 95 -21.5 183t-70 165.5t-115.5 135.5t-165 91.5t-212 34.5q-141 0 -254.5 -49.5t-184.5 -135t-108.5 -194t-37.5 -231.5zM526 1681q0 44 29 68.5 t63.5 24.5t63.5 -24.5t29 -68.5q0 -43 -29 -67.5t-63.5 -24.5t-63.5 24.5t-29 67.5zM977 1679q0 35 19 59t46 29.5t54 0.5t46 -29t19 -58q0 -57 -46 -80.5t-92 -0.5t-46 79z" />
<glyph unicode="&#xd7;" horiz-adv-x="931" d="M135 412l246 250l-242 239l88 84l240 -240l240 238l86 -84l-244 -242l248 -245l-84 -82l-246 243l-246 -247z" />
<glyph unicode="&#xd8;" horiz-adv-x="1665" d="M106 717q0 113 27.5 219.5t86.5 201.5t143 166t204.5 112.5t263.5 41.5q193 0 343 -78l104 179h145l-143 -240q136 -103 207.5 -263.5t71.5 -340.5q-1 -115 -29.5 -222t-87.5 -202t-143 -165.5t-204 -111.5t-261 -41q-169 0 -312 60l-114 -193h-142l150 254 q-151 98 -230.5 264.5t-79.5 358.5zM250 715q0 -150 61 -283.5t176 -214.5l617 1049q-121 59 -270 59q-144 0 -259 -51.5t-185 -138t-106 -194.5t-34 -226zM592 154q104 -43 242 -43q143 0 257 51.5t183.5 137.5t106 192.5t36.5 222.5q0 143 -53.5 271t-155.5 212z" />
<glyph unicode="&#xd9;" horiz-adv-x="1636" d="M76 1303v131h504v-131h-189v-746q0 -108 35 -194.5t94.5 -141t136.5 -83.5t164 -29t163 29.5t134.5 84.5t92.5 141t34 193v746h-188v131h506v-131h-179v-746q0 -136 -44 -247t-120.5 -183.5t-178.5 -111t-220 -38.5q-117 0 -219.5 38.5t-180.5 110t-123.5 183 t-45.5 248.5v746h-176zM582 1798h163l154 -252v-8h-123z" />
<glyph unicode="&#xda;" horiz-adv-x="1636" d="M76 1303v131h504v-131h-189v-746q0 -108 35 -194.5t94.5 -141t136.5 -83.5t164 -29t163 29.5t134.5 84.5t92.5 141t34 193v746h-188v131h506v-131h-179v-746q0 -136 -44 -247t-120.5 -183.5t-178.5 -111t-220 -38.5q-117 0 -219.5 38.5t-180.5 110t-123.5 183 t-45.5 248.5v746h-176zM735 1534v10l156 248h170l-199 -258h-127z" />
<glyph unicode="&#xdb;" horiz-adv-x="1636" d="M76 1303v131h504v-131h-189v-746q0 -108 35 -194.5t94.5 -141t136.5 -83.5t164 -29t163 29.5t134.5 84.5t92.5 141t34 193v746h-188v131h506v-131h-179v-746q0 -136 -44 -247t-120.5 -183.5t-178.5 -111t-220 -38.5q-117 0 -219.5 38.5t-180.5 110t-123.5 183 t-45.5 248.5v746h-176zM481 1554v13l279 262h96l281 -262v-13h-142l-188 175l-184 -175h-142z" />
<glyph unicode="&#xdc;" horiz-adv-x="1636" d="M76 1303v131h504v-131h-189v-746q0 -108 35 -194.5t94.5 -141t136.5 -83.5t164 -29t163 29.5t134.5 84.5t92.5 141t34 193v746h-188v131h506v-131h-179v-746q0 -136 -44 -247t-120.5 -183.5t-178.5 -111t-220 -38.5q-117 0 -219.5 38.5t-180.5 110t-123.5 183 t-45.5 248.5v746h-176zM428 1655q0 44 27 69t65 25t66 -24.5t28 -67.5t-28 -67.5t-66 -24.5q-38 -2 -65 22t-27 68zM1018 1655q0 43 28 68.5t64 25.5q39 0 66.5 -25t27.5 -69q0 -43 -28 -67.5t-66 -24.5q-37 0 -64.5 24.5t-27.5 67.5z" />
<glyph unicode="&#xdd;" horiz-adv-x="1466" d="M35 1303v131h489v-131h-172l168 -259l211 -333l217 338l166 254h-172v131h492v-131h-152l-479 -725v-449h190v-129h-524v129h193v449l-478 725h-149zM662 1548v8l151 252h166l-195 -260h-122z" />
<glyph unicode="&#xde;" horiz-adv-x="1441" d="M104 0v127h185v1182h-185v127h519v-127h-195v-172h479q111 0 201 -34t146 -92.5t86 -132t30 -155.5t-30 -155.5t-86 -132t-146.5 -92.5t-202.5 -34h-477v-182h195v-127h-519zM430 434h477q155 0 240.5 84t85.5 207q0 122 -85.5 205.5t-240.5 83.5h-477v-580z" />
<glyph unicode="&#xdf;" horiz-adv-x="1306" d="M45 0v117h178v942q0 98 36 175.5t97.5 125.5t139.5 73t166 25q96 0 175.5 -22t141 -66.5t95.5 -118t34 -170.5q0 -96 -52.5 -172t-142.5 -108q-58 -12 -82 -13q59 -3 82 -8q150 -42 225.5 -143t75.5 -244q0 -108 -36.5 -190t-100 -131t-142.5 -73t-171 -24 q-127 0 -268 52l4 123q123 -54 245 -54q148 0 240 76.5t92 216.5q0 78 -24.5 137.5t-64 96t-95.5 60t-112.5 32t-121.5 8.5h-157v121h149q56 0 107.5 10.5t103 34.5t82.5 73.5t31 118.5q0 60 -19 106t-49 73t-72.5 44t-82.5 23t-86 6q-298 0 -308 -276v-1057h-313z" />
<glyph unicode="&#xe0;" horiz-adv-x="1185" d="M88 295q0 92 40.5 159t106.5 101t149 50t171 10.5t168.5 -23t144.5 -45.5v100q0 70 -28 121.5t-77.5 79.5t-106.5 41t-126 14q-143 0 -239 -45l-4 -145h-119l-2 221q142 92 375 92q95 0 174.5 -20.5t144.5 -63.5t102 -119t37 -178v-526h175v-119h-285l-12 186 q-64 -100 -170.5 -152t-229.5 -52q-79 0 -147 18t-123 54t-87 98t-32 143zM219 309q0 -71 43.5 -120t104.5 -69t131 -20q145 -2 256.5 89t117.5 243q-69 40 -173 65t-195 23q-122 -2 -204 -53.5t-81 -157.5zM369 1438h159l138 -236v-10h-119z" />
<glyph unicode="&#xe1;" horiz-adv-x="1185" d="M88 295q0 92 40.5 159t106.5 101t149 50t171 10.5t168.5 -23t144.5 -45.5v100q0 70 -28 121.5t-77.5 79.5t-106.5 41t-126 14q-143 0 -239 -45l-4 -145h-119l-2 221q142 92 375 92q95 0 174.5 -20.5t144.5 -63.5t102 -119t37 -178v-526h175v-119h-285l-12 186 q-64 -100 -170.5 -152t-229.5 -52q-79 0 -147 18t-123 54t-87 98t-32 143zM219 309q0 -71 43.5 -120t104.5 -69t131 -20q145 -2 256.5 89t117.5 243q-71 40 -175.5 64.5t-196.5 23.5q-57 -2 -105 -14t-89 -35.5t-64.5 -65t-22.5 -96.5zM473 1194v8l141 238h162l-184 -246 h-119z" />
<glyph unicode="&#xe2;" horiz-adv-x="1185" d="M88 295q0 92 40.5 159t106.5 101t149 50t171 10.5t168.5 -23t144.5 -45.5v100q0 70 -28 121.5t-77.5 79.5t-106.5 41t-126 14q-143 0 -239 -45l-4 -145h-119l-2 221q142 92 375 92q95 0 174.5 -20.5t144.5 -63.5t102 -119t37 -178v-526h175v-119h-285l-12 186 q-64 -100 -170.5 -152t-229.5 -52q-79 0 -147 18t-123 54t-87 98t-32 143zM219 309q0 -71 43.5 -120t104.5 -69t131 -20q145 -2 256.5 89t117.5 243q-69 40 -173 65t-195 23q-122 -2 -204 -53.5t-81 -157.5zM258 1171v13l279 262h90l280 -262v-13h-135l-188 172l-191 -172 h-135z" />
<glyph unicode="&#xe3;" horiz-adv-x="1185" d="M88 295q0 92 40.5 159t106.5 101t149 50t171 10.5t168.5 -23t144.5 -45.5v100q0 70 -28 121.5t-77.5 79.5t-106.5 41t-126 14q-143 0 -239 -45l-4 -145h-119l-2 221q142 92 375 92q95 0 174.5 -20.5t144.5 -63.5t102 -119t37 -178v-526h175v-119h-285l-12 186 q-64 -100 -170.5 -152t-229.5 -52q-79 0 -147 18t-123 54t-87 98t-32 143zM219 309q0 -71 43.5 -120t104.5 -69t131 -20q145 -2 256.5 89t117.5 243q-69 40 -173.5 64.5t-196.5 23.5q-122 -2 -203 -53.5t-80 -157.5zM287 1272q20 88 87.5 124.5t151.5 2.5q9 -2 55 -24.5 t52 -24.5q93 -35 121 61l88 -35q-20 -96 -84.5 -130t-143.5 -1q-8 2 -55 24.5t-55 24.5q-98 40 -133 -61z" />
<glyph unicode="&#xe4;" horiz-adv-x="1185" d="M88 295q0 92 40.5 159t106.5 101t149 50t171 10.5t168.5 -23t144.5 -45.5v100q0 70 -28 121.5t-77.5 79.5t-106.5 41t-126 14q-143 0 -239 -45l-4 -145h-119l-2 221q142 92 375 92q95 0 174.5 -20.5t144.5 -63.5t102 -119t37 -178v-526h175v-119h-285l-12 186 q-64 -100 -170.5 -152t-229.5 -52q-79 0 -147 18t-123 54t-87 98t-32 143zM219 309q0 -71 43.5 -120t104.5 -69t131 -20q145 -2 256.5 89t117.5 243q-69 40 -173.5 64.5t-196.5 23.5q-122 -2 -203 -53.5t-80 -157.5zM287 1333q0 43 27 67.5t65 24.5q37 0 64.5 -23.5 t27.5 -66.5q0 -42 -27 -66t-65 -24q-37 -2 -64.5 22t-27.5 66zM702 1333q0 43 27.5 67.5t65.5 24.5q37 0 64.5 -24.5t27.5 -67.5q0 -42 -27.5 -66t-64.5 -24q-38 0 -65.5 24t-27.5 66z" />
<glyph unicode="&#xe5;" horiz-adv-x="1185" d="M88 295q0 92 40.5 159t106.5 101t149 50t171 10.5t168.5 -23t144.5 -45.5v100q0 70 -28 121.5t-77.5 79.5t-106.5 41t-126 14q-143 0 -239 -45l-4 -145h-119l-2 221q142 92 375 92q95 0 174.5 -20.5t144.5 -63.5t102 -119t37 -178v-526h175v-119h-285l-12 186 q-64 -100 -170.5 -152t-229.5 -52q-79 0 -147 18t-123 54t-87 98t-32 143zM219 309q0 -71 43.5 -120t104.5 -69t131 -20q145 -2 256.5 89t117.5 243q-69 40 -173.5 64.5t-196.5 23.5q-122 -2 -203 -53.5t-80 -157.5zM358 1323q0 87 62.5 135.5t148.5 48.5t149.5 -48 t63.5 -134t-61.5 -132t-151.5 -46q-88 0 -149.5 48.5t-61.5 127.5zM453 1327q0 -42 31.5 -69t84.5 -27q56 0 88.5 28t32.5 70t-33 69t-88 27q-53 0 -84.5 -27.5t-31.5 -70.5z" />
<glyph unicode="&#xe6;" horiz-adv-x="2097" d="M96 504q0 159 69.5 279t185.5 181.5t259 61.5q130 0 242.5 -61.5t161.5 -173.5v223h104v-205q64 107 169.5 164t234.5 55q84 -1 162 -23t145 -69t113 -114t66 -162.5t5 -208.5h-885q15 -161 124 -253t266 -92q98 0 195 38.5t149 105.5l90 -80q-72 -90 -191 -138t-245 -48 q-132 0 -237 56t-163 159v-199h-106v209q-37 -76 -103 -129.5t-141 -78t-154 -24.5q-144 0 -260.5 63t-186 184t-69.5 280zM227 500q0 -181 112.5 -291.5t278.5 -110.5q96 0 173.5 33.5t125 90t72.5 127.5t25 149q0 109 -45 198.5t-137 145t-216 55.5q-166 0 -277.5 -108.5 t-111.5 -288.5zM1130 561l758 -2q-1 164 -103 255t-272 91q-152 0 -258.5 -91t-124.5 -253z" />
<glyph unicode="&#xe7;" horiz-adv-x="1083" d="M96 506q0 126 42 226.5t115 164t169 97.5t207 34q179 0 344 -100l-6 -244h-119v174q-85 47 -219 47q-174 0 -287 -107.5t-113 -291.5q0 -126 55 -216.5t145.5 -133.5t205.5 -43q81 0 158.5 29t130.5 85l86 -88q-140 -143 -357 -153h-18l-23 -92q80 2 130.5 -30t65 -79.5 t1.5 -101.5q-21 -75 -83.5 -111t-141.5 -33q-65 2 -123 29.5t-94 77.5l63 61q24 -31 66 -50t88 -22q97 -4 118 68q16 57 -38 94.5t-148 12.5l-24 18l45 166q-199 27 -320 159.5t-121 352.5z" />
<glyph unicode="&#xe8;" horiz-adv-x="1200" d="M94 508q0 229 145.5 375.5t370.5 146.5q91 0 170.5 -21.5t147 -67t113 -112.5t66 -163t9.5 -213h-889q15 -161 125 -252.5t266 -91.5q99 0 197 38.5t150 104.5l88 -80q-72 -90 -191.5 -138t-245.5 -48q-150 0 -267.5 62t-186 181.5t-68.5 278.5zM227 563h764 q-3 166 -105 256t-274 90q-153 0 -260 -91.5t-125 -254.5zM406 1442h163l154 -252v-8h-123z" />
<glyph unicode="&#xe9;" horiz-adv-x="1200" d="M94 508q0 229 145.5 375.5t370.5 146.5q91 0 170.5 -21.5t147 -67t113 -112.5t66 -163t9.5 -213h-889q15 -161 125 -252.5t266 -91.5q99 0 197 38.5t150 104.5l88 -80q-72 -90 -191.5 -138t-245.5 -48q-150 0 -267.5 62t-186 181.5t-68.5 278.5zM227 563h764 q-3 166 -105 256t-274 90q-153 0 -260 -91.5t-125 -254.5zM528 1182v10l152 252h166l-195 -262h-123z" />
<glyph unicode="&#xea;" horiz-adv-x="1200" d="M94 508q0 229 145.5 375.5t370.5 146.5q91 0 170.5 -21.5t147 -67t113 -112.5t66 -163t9.5 -213h-889q15 -161 125 -252.5t266 -91.5q99 0 197 38.5t150 104.5l88 -80q-72 -90 -191.5 -138t-245.5 -48q-150 0 -267.5 62t-186 181.5t-68.5 278.5zM227 563h764 q-3 166 -105 256t-274 90q-153 0 -260 -91.5t-125 -254.5zM295 1161v13l287 266h92l287 -266v-13h-138l-196 180l-195 -180h-137z" />
<glyph unicode="&#xeb;" horiz-adv-x="1200" d="M94 508q0 229 145.5 375.5t370.5 146.5q91 0 170.5 -21.5t147 -67t113 -112.5t66 -163t9.5 -213h-889q15 -161 125 -252.5t266 -91.5q99 0 197 38.5t150 104.5l88 -80q-72 -90 -191.5 -138t-245.5 -48q-150 0 -267.5 62t-186 181.5t-68.5 278.5zM227 563h764 q-3 166 -105 256t-274 90q-153 0 -260 -91.5t-125 -254.5zM326 1337q0 35 18.5 59t45.5 29.5t54 0.5t45.5 -29t18.5 -58t-18.5 -57t-45.5 -28.5t-54 -0.5t-45.5 28t-18.5 56zM752 1337q0 44 28.5 68.5t62.5 24.5t62.5 -24.5t28.5 -68.5q0 -56 -45.5 -79t-91 0t-45.5 79z" />
<glyph unicode="&#xec;" horiz-adv-x="608" d="M72 0v121h178v774h-174v121h307v-895h178v-121h-489zM115 1427h149l121 -256v-8h-117z" />
<glyph unicode="&#xed;" horiz-adv-x="606" d="M70 0v121h180v774h-174v121h305v-895h178v-121h-489zM231 1161v8l121 256h148l-152 -264h-117z" />
<glyph unicode="&#xee;" horiz-adv-x="606" d="M41 1155v19l217 253h78l213 -253v-19h-115l-137 154l-139 -154h-117zM70 0v121h180v774h-174v121h305v-895h178v-121h-489z" />
<glyph unicode="&#xef;" horiz-adv-x="606" d="M51 1307q0 43 28 67.5t66 24.5t66.5 -24.5t28.5 -67.5q0 -45 -28.5 -70t-66.5 -25t-66 25t-28 70zM70 0v121h180v774h-174v121h305v-895h178v-121h-489zM373 1307q0 43 28 67.5t66 24.5t66 -24.5t28 -67.5q0 -45 -28 -70t-66 -25t-66 25t-28 70z" />
<glyph unicode="&#xf0;" horiz-adv-x="1236" d="M94 489q0 94 31 181.5t89 159t153 117t213 50.5q114 3 221.5 -41t179.5 -139q-37 115 -123.5 212.5t-189.5 164.5l-80 -111l-74 50l74 108q-83 52 -199 80l33 111q124 -35 242 -95l90 127l75 -53l-86 -121q389 -279 392 -772q3 -239 -138.5 -387.5t-382.5 -148.5 q-126 0 -227.5 43t-164 115t-95.5 161.5t-33 187.5zM229 492q0 -77 24.5 -146t71.5 -124t121.5 -87.5t167.5 -32.5q123 0 214.5 57t135.5 144.5t44 188.5q0 74 -26 142.5t-74.5 124t-124.5 89t-169 33.5q-75 0 -138.5 -21.5t-108 -59t-76.5 -87.5t-47 -106t-15 -115z" />
<glyph unicode="&#xf1;" horiz-adv-x="1380" d="M72 0v121h180v772h-176v119h297l6 -183q125 201 360 201q214 0 326.5 -120t112.5 -341v-448h180v-121h-471v121h157v446q0 172 -77 255t-238 83q-150 0 -248 -99t-98 -253v-432h168v-121h-479zM436 1307q22 88 86 123t148 0q8 -2 54 -26t52 -26q91 -43 123 56l88 -37 q-23 -96 -89 -129.5t-140 2.5q-8 2 -54 26t-53 25q-92 43 -127 -57z" />
<glyph unicode="&#xf2;" horiz-adv-x="1230" d="M94 504q0 156 69 277.5t187 186t264 64.5q227 0 375 -146.5t148 -381.5q0 -232 -149 -376t-374 -144q-224 0 -372 144t-148 376zM227 504q0 -176 110.5 -285.5t276.5 -109.5q167 0 279 109.5t113 285.5q0 181 -112 293t-278 112q-167 0 -278 -112t-111 -293zM449 1362 l79 80l127 -170l54 -86l-103 -2z" />
<glyph unicode="&#xf3;" horiz-adv-x="1230" d="M94 504q0 156 69 277.5t187 186t264 64.5q227 0 375 -146.5t148 -381.5q0 -232 -149 -376t-374 -144q-224 0 -372 144t-148 376zM227 504q0 -176 110.5 -285.5t276.5 -109.5q167 0 279 109.5t113 285.5q0 181 -112 293t-278 112q-167 0 -278 -112t-111 -293zM530 1178v10 l152 246h162l-193 -256h-121z" />
<glyph unicode="&#xf4;" horiz-adv-x="1230" d="M94 504q0 156 69 277.5t187 186t264 64.5q227 0 375 -146.5t148 -381.5q0 -232 -149 -376t-374 -144q-224 0 -372 144t-148 376zM227 504q0 -176 110.5 -285.5t276.5 -109.5q167 0 279 109.5t113 285.5q0 181 -112 293t-278 112q-167 0 -278 -112t-111 -293zM289 1161v13 l282 268h93l280 -268v-13h-137l-191 180l-190 -180h-137z" />
<glyph unicode="&#xf5;" horiz-adv-x="1230" d="M94 504q0 156 69 277.5t187 186t264 64.5q227 0 375 -146.5t148 -381.5q0 -232 -149 -376t-374 -144q-224 0 -372 144t-148 376zM227 504q0 -176 110.5 -285.5t276.5 -109.5q167 0 279 109.5t113 285.5q0 181 -112 293t-278 112q-167 0 -278 -112t-111 -293zM344 1294 q22 86 87.5 121t148.5 0q7 -2 54 -25t54 -24q93 -40 121 57l90 -37q-15 -63 -51.5 -100t-82 -41.5t-97.5 17.5q-8 2 -53.5 25.5t-51.5 25.5q-97 40 -131 -58z" />
<glyph unicode="&#xf6;" horiz-adv-x="1230" d="M94 504q0 156 69 277.5t187 186t264 64.5q227 0 375 -146.5t148 -381.5q0 -232 -149 -376t-374 -144q-224 0 -372 144t-148 376zM227 504q0 -176 110.5 -285.5t276.5 -109.5q167 0 279 109.5t113 285.5q0 181 -112 293t-278 112q-167 0 -278 -112t-111 -293zM322 1339 q0 56 45 79t90 0t45 -79t-45 -79t-90 0t-45 79zM733 1337q0 57 45 80.5t90 0.5t45 -79q0 -34 -18.5 -57t-45 -28.5t-53 -0.5t-45 28t-18.5 56z" />
<glyph unicode="&#xf7;" horiz-adv-x="1116" d="M141 614v131h834v-131h-834zM467 346q0 44 29 69.5t64 25.5t64 -25.5t29 -69.5q0 -43 -29 -67.5t-64 -24.5t-64 24.5t-29 67.5zM467 1001q0 44 29 69.5t64 25.5t64 -25.5t29 -69.5q0 -43 -29 -67.5t-64 -24.5t-64 24.5t-29 67.5z" />
<glyph unicode="&#xf8;" horiz-adv-x="1222" d="M96 504q0 233 146.5 379.5t369.5 146.5q123 0 224 -49l75 129h133l-110 -186q91 -69 142.5 -178t51.5 -242q0 -233 -146 -376.5t-370 -143.5q-122 0 -215 41l-82 -140h-131l117 195q-96 68 -150.5 177t-54.5 247zM227 506q0 -199 142 -311l405 679q-82 35 -162 35 q-165 0 -275 -113t-110 -290zM469 139q62 -26 145 -26q167 0 276 108t109 285q0 190 -131 305z" />
<glyph unicode="&#xf9;" horiz-adv-x="1345" d="M20 895v117h302v-568q0 -335 327 -335q150 1 245 101t95 251v434h-176v117h309v-891h178v-121h-286l-21 184q-126 -197 -366 -200q-214 0 -326.5 120.5t-112.5 337.5v453h-168zM387 1423h164l154 -252v-10h-123z" />
<glyph unicode="&#xfa;" horiz-adv-x="1345" d="M20 895v117h302v-568q0 -335 327 -335q150 1 245 101t95 251v434h-176v117h309v-891h178v-121h-286l-21 184q-126 -197 -366 -200q-214 0 -326.5 120.5t-112.5 337.5v453h-168zM535 1161v8l151 252h166l-195 -260h-122z" />
<glyph unicode="&#xfb;" horiz-adv-x="1345" d="M20 895v117h302v-568q0 -335 327 -335q150 1 245 101t95 251v434h-176v117h309v-891h178v-121h-286l-21 184q-126 -197 -366 -200q-214 0 -326.5 120.5t-112.5 337.5v453h-168zM299 1161v13l279 262h96l278 -262v-13h-139l-188 174l-187 -174h-139z" />
<glyph unicode="&#xfc;" horiz-adv-x="1345" d="M20 895v117h302v-568q0 -335 327 -335q150 1 245 101t95 251v434h-176v117h309v-891h178v-121h-286l-21 184q-126 -197 -366 -200q-214 0 -326.5 120.5t-112.5 337.5v453h-168zM309 1311q0 45 28 69.5t66 24.5t66.5 -24.5t28.5 -67.5t-28.5 -67.5t-66.5 -24.5t-66 24 t-28 66zM764 1311q0 45 28 69.5t66 24.5t66 -24.5t28 -69.5q0 -43 -28 -67.5t-66 -24.5t-66 24.5t-28 67.5z" />
<glyph unicode="&#xfd;" horiz-adv-x="1294" d="M20 893v119h306v-568q0 -160 87.5 -249.5t243.5 -88.5q145 1 240.5 103.5t95.5 251.5v432h-174v119h307v-1049q0 -119 -34.5 -212t-96.5 -151.5t-145 -89t-182 -30.5q-206 0 -323.5 97t-131.5 267h127q27 -237 326 -237q70 0 129 21.5t105.5 64t72.5 111.5t26 159v221 q-112 -196 -366 -200q-202 0 -322.5 122t-120.5 336v451h-170zM535 1180v10l145 248h160l-187 -258h-118z" />
<glyph unicode="&#xfe;" horiz-adv-x="1308" d="M0 1311v119h299v-637q57 107 169 170t247 63q142 -4 253 -64t177.5 -178.5t66.5 -279.5q0 -166 -69.5 -286.5t-184 -179t-260.5 -58.5q-124 0 -230 59.5t-167 173.5v-514h178v-121h-467v121h156v1612h-168zM309 502q0 -169 110.5 -282.5t272.5 -113.5q169 0 278 104.5 t109 293.5t-109 291t-278 102q-164 0 -273.5 -112t-109.5 -283z" />
<glyph unicode="&#xff;" horiz-adv-x="1294" d="M20 893v119h306v-568q0 -160 87.5 -249.5t243.5 -88.5q145 1 240.5 103.5t95.5 251.5v432h-174v119h307v-1049q0 -119 -34.5 -212t-96.5 -151.5t-145 -89t-182 -30.5q-206 0 -323.5 97t-131.5 267h127q27 -237 326 -237q70 0 129 21.5t105.5 64t72.5 111.5t26 159v221 q-112 -196 -366 -200q-202 0 -322.5 122t-120.5 336v451h-170zM309 1352q0 43 27 67.5t65 24.5t66.5 -24.5t28.5 -67.5t-28.5 -69t-66.5 -26q-37 0 -64.5 25.5t-27.5 69.5zM766 1352q0 43 28 67.5t66 24.5t65 -24.5t27 -67.5q0 -44 -27.5 -69.5t-64.5 -25.5q-38 0 -66 25.5 t-28 69.5z" />
<glyph unicode="&#x152;" horiz-adv-x="1982" d="M109 719q0 152 46 282.5t134 231t228 158t317 57.5q83 0 165 -14h850v-349h-125l-6 222h-594v-508h586v-129h-586v-539h627l4 221h127v-352h-887q-96 -16 -161 -16q-176 0 -316 58.5t-228.5 160.5t-134.5 233.5t-46 282.5zM250 717q2 -123 40 -232t109 -195t183.5 -136 t253.5 -50q81 0 159 19v1190q-73 18 -161 18q-142 0 -255 -48.5t-184 -133t-108 -194.5t-37 -238z" />
<glyph unicode="&#x153;" horiz-adv-x="2076" d="M94 506q0 232 147 379t369 147q151 0 270.5 -76.5t174.5 -210.5q52 129 169 207t269 78q91 0 170 -21.5t145.5 -67t111 -112.5t64.5 -163t9 -213h-877q15 -162 121.5 -253t263.5 -91q98 0 194 38t148 105l90 -80q-72 -90 -190 -138t-244 -48q-154 0 -273 74.5t-173 205.5 q-58 -134 -174.5 -207t-268.5 -73q-223 0 -369.5 143.5t-146.5 376.5zM227 502q0 -176 109 -286t274 -110q168 0 276.5 109.5t108.5 286.5q0 178 -110 290.5t-275 112.5q-162 0 -272.5 -117t-110.5 -286zM1114 565l756 -2q-1 165 -102.5 255.5t-272.5 90.5 q-152 0 -256.5 -91t-124.5 -253z" />
<glyph unicode="&#x178;" horiz-adv-x="1466" d="M35 1303v131h489v-131h-172l168 -259l211 -333l217 338l166 254h-172v131h492v-131h-152l-479 -725v-449h190v-129h-524v129h193v449l-478 725h-149zM379 1651q0 43 28 67.5t66 24.5t66 -24.5t28 -67.5t-28 -67.5t-66 -24.5t-66 24.5t-28 67.5zM901 1651q0 43 28 67.5 t66 24.5t65 -24.5t27 -67.5t-27 -67.5t-65 -24.5t-66 24.5t-28 67.5z" />
<glyph unicode="&#x2c6;" horiz-adv-x="864" d="M82 1169v13l278 262h97l278 -262v-13h-139l-188 174l-187 -174h-139z" />
<glyph unicode="&#x2dc;" horiz-adv-x="698" d="M59 1350q22 88 86 123t148 0q8 -2 54 -26t52 -26q91 -43 123 56l88 -37q-23 -96 -89 -129.5t-140 2.5q-8 2 -54 26t-53 25q-92 43 -127 -57z" />
<glyph unicode="&#x2000;" horiz-adv-x="934" />
<glyph unicode="&#x2001;" horiz-adv-x="1868" />
<glyph unicode="&#x2002;" horiz-adv-x="934" />
<glyph unicode="&#x2003;" horiz-adv-x="1868" />
<glyph unicode="&#x2004;" horiz-adv-x="622" />
<glyph unicode="&#x2005;" horiz-adv-x="467" />
<glyph unicode="&#x2006;" horiz-adv-x="311" />
<glyph unicode="&#x2007;" horiz-adv-x="311" />
<glyph unicode="&#x2008;" horiz-adv-x="233" />
<glyph unicode="&#x2009;" horiz-adv-x="373" />
<glyph unicode="&#x200a;" horiz-adv-x="103" />
<glyph unicode="&#x2010;" horiz-adv-x="1015" d="M145 524v127h725v-127h-725z" />
<glyph unicode="&#x2011;" horiz-adv-x="1015" d="M145 524v127h725v-127h-725z" />
<glyph unicode="&#x2012;" horiz-adv-x="1015" d="M145 524v127h725v-127h-725z" />
<glyph unicode="&#x2013;" horiz-adv-x="1216" d="M145 522v125h926v-125h-926z" />
<glyph unicode="&#x2014;" horiz-adv-x="1431" d="M145 522v125h1141v-125h-1141z" />
<glyph unicode="&#x2018;" horiz-adv-x="458" d="M119 1073l125 363h110l-92 -363h-143z" />
<glyph unicode="&#x2019;" horiz-adv-x="454" d="M123 1069l94 367h145l-126 -367h-113z" />
<glyph unicode="&#x201a;" horiz-adv-x="661" d="M193 -229l92 370h143l-127 -370h-108z" />
<glyph unicode="&#x201c;" horiz-adv-x="727" d="M117 1067l127 365h112l-94 -365h-145zM387 1067l127 365h113l-95 -365h-145z" />
<glyph unicode="&#x201d;" horiz-adv-x="718" d="M121 1075l94 361h143l-125 -361h-112zM391 1075l94 361h144l-125 -361h-113z" />
<glyph unicode="&#x201e;" horiz-adv-x="929" d="M190 -229l95 370h143l-127 -370h-111zM459 -229l92 370h145l-129 -370h-108z" />
<glyph unicode="&#x2022;" horiz-adv-x="778" d="M176 696q0 94 61 152.5t154 58.5q91 0 151 -58.5t60 -152.5t-61 -152.5t-152 -58.5q-92 0 -152.5 58.5t-60.5 152.5z" />
<glyph unicode="&#x2026;" horiz-adv-x="1284" d="M139 80q0 42 28 66t66 24q37 0 65 -24.5t28 -67.5t-27.5 -67.5t-65.5 -24.5t-66 24.5t-28 69.5zM551 80q0 42 27 66t65 24t65 -24.5t27 -67.5t-27 -67.5t-65 -24.5t-65 24.5t-27 69.5zM958 80q0 42 28.5 66t66.5 24q37 0 64.5 -24.5t27.5 -67.5t-27 -67.5t-65 -24.5 t-66.5 24.5t-28.5 69.5z" />
<glyph unicode="&#x202f;" horiz-adv-x="373" />
<glyph unicode="&#x2039;" horiz-adv-x="624" d="M96 612l283 449h143l-278 -449l278 -452h-143z" />
<glyph unicode="&#x203a;" horiz-adv-x="624" d="M104 156l279 450l-279 451h144l280 -451l-280 -450h-144z" />
<glyph unicode="&#x205f;" horiz-adv-x="467" />
<glyph unicode="&#x20ac;" d="M176 522v115h123q-2 16 -2 70q0 48 2 73h-123v115h139q23 119 77.5 218.5t140.5 176t211.5 119.5t279.5 43q96 0 197 -29l-37 -125q-79 21 -160 21q-236 0 -377 -113.5t-186 -310.5h545l-29 -115h-541q-4 -23 -4 -71q0 -28 4 -68h516l-26 -115h-465q43 -193 182.5 -302 t376.5 -109q109 0 207 39l41 -138q-121 -41 -246 -41q-157 0 -282 40t-210 114.5t-138.5 172t-78.5 220.5h-137z" />
<glyph unicode="&#x2122;" horiz-adv-x="1622" d="M123 1337v97h563v-97h-227v-481h-113v481h-223zM793 856v580h112l219 -283l224 283h106v-580h-117l4 406l-208 -263h-23l-207 271l4 -414h-114z" />
<glyph unicode="&#xe000;" horiz-adv-x="1013" d="M0 0v1014h1014v-1014h-1014z" />
<glyph unicode="&#xfb01;" horiz-adv-x="1220" d="M57 895v117h203v82q0 165 80.5 257t239.5 93q78 0 153 -35l-33 -113q-53 27 -118 27q-191 0 -191 -229v-82h604v-893h179v-119h-472v119h162v776h-473v-776h187v-119h-492v119h174v776h-203zM836 1333q0 44 28.5 68t65.5 24q38 0 66 -24t28 -70q0 -44 -28.5 -68 t-65.5 -22q-38 0 -66 23t-28 69z" />
<glyph unicode="&#xfb02;" horiz-adv-x="1222" d="M59 889v115h201v88q0 362 399 362q139 2 336 -43v-1290h176v-121h-464v121h157v1186q-118 30 -211 30q-56 0 -99.5 -10.5t-82 -36t-59.5 -76t-21 -122.5v-88h287v-115h-287v-770h187v-119h-490v119h172v770h-201z" />
</font>
</defs>
</svg>
